<?xml version="1.0" standalone="no"?>
<!DOCTYPE svg PUBLIC "-//W3C//DTD SVG 1.1//EN" "http://www.w3.org/Graphics/SVG/1.1/DTD/svg11.dtd" >
<svg xmlns="http://www.w3.org/2000/svg">
<metadata>Generated by IcoMoon</metadata>
<defs>
<font id="icomoon" horiz-adv-x="1024">
<font-face units-per-em="1024" ascent="960" descent="-64" />
<missing-glyph horiz-adv-x="1024" />
<glyph unicode="&#x20;" horiz-adv-x="512" d="" />
<glyph unicode="&#xe900;" glyph-name="prod-aiService-cfr" d="M729.6 874.667v0c0-21.208 17.192-38.4 38.4-38.4h132.267v-132.267c0-21.208 17.192-38.4 38.4-38.4s38.4 17.192 38.4 38.4v162.133c0 25.921-21.013 46.933-46.933 46.933h-162.133c-21.208 0-38.4-17.192-38.4-38.4zM294.4 874.667v0c0-21.208-17.192-38.4-38.4-38.4h-132.267v-132.267c0-21.208-17.192-38.4-38.4-38.4s-38.4 17.192-38.4 38.4v162.133c0 25.921 21.013 46.933 46.933 46.933h162.133c21.208 0 38.4-17.192 38.4-38.4zM729.6 21.333v0c0 21.208 17.192 38.4 38.4 38.4h132.267v132.267c0 21.208 17.192 38.4 38.4 38.4s38.4-17.192 38.4-38.4v-162.133c0-25.921-21.013-46.933-46.933-46.933h-162.133c-21.163 0-38.4 17.237-38.4 38.4zM294.4 21.333v0c0 21.208-17.192 38.4-38.4 38.4h-132.267v132.267c0 21.208-17.192 38.4-38.4 38.4s-38.4-17.192-38.4-38.4v-162.133c0-25.921 21.013-46.933 46.933-46.933h162.133c21.208 0 38.4 17.192 38.4 38.4zM247.467 448.256c0 145.664 118.613 264.277 264.533 264.277h0.014c145.935-0.145 264.229-118.348 264.52-264.277 0-145.579-118.613-264.192-264.533-264.192h-0.014c-145.905 0.145-264.18 118.3-264.519 264.192zM170.667 448.256c0.34-188.308 152.999-340.847 341.32-340.992h0.014c188.245 0 341.333 153.003 341.333 340.992-0.291 188.345-152.969 340.932-341.32 341.077h-0.014c-188.245 0-341.333-153.003-341.333-341.077zM456.619 543.403c0-22.81-18.491-41.301-41.301-41.301s-41.301 18.491-41.301 41.301v0c0 22.81 18.491 41.301 41.301 41.301s41.301-18.491 41.301-41.301v0zM649.472 543.403c0-22.834-18.51-41.344-41.344-41.344s-41.344 18.51-41.344 41.344v0c0 22.834 18.51 41.344 41.344 41.344s41.344-18.51 41.344-41.344v0zM344.917 378.027c-2.336 3.964-3.717 8.733-3.717 13.824 0 15.225 12.342 27.567 27.567 27.567 10.134 0 18.99-5.468 23.78-13.614l0.070-0.129c24.306-41.343 68.503-68.695 119.101-68.864h0.024c48.896 0 94.549 26.453 119.125 68.864 4.848 8.266 13.69 13.728 23.808 13.728 15.193 0 27.509-12.316 27.509-27.509 0-5.075-1.374-9.829-3.771-13.911l0.070 0.129c-33.994-57.901-95.87-96.211-166.71-96.427h-0.031c-70.895 0.221-132.793 38.525-166.333 95.52l-0.493 0.907z" />
<glyph unicode="&#xe901;" glyph-name="prod-aiService-csr" d="M610.112 389.869c20.913-3.521 35.012-23.329 31.491-44.243-7.486-44.464-28.811-111.47-77.872-168.102-44.367-51.211-110.039-92.2-203.197-101.075v-99.917c0-21.205-17.192-38.4-38.4-38.4s-38.4 17.195-38.4 38.4v99.917c-93.156 8.875-158.828 49.864-203.193 101.075-49.061 56.631-70.386 123.638-77.872 168.102-3.521 20.913 10.578 40.722 31.491 44.243s40.721-10.578 44.243-31.491c5.924-35.18 22.999-87.641 60.185-130.565 36.017-41.574 92.57-76.343 183.549-76.343s147.531 34.769 183.548 76.343c37.187 42.924 54.262 95.385 60.185 130.565 3.522 20.913 23.329 35.012 44.243 31.491zM322.137 770.132c98.97 0 179.2-80.23 179.2-179.2v-187.733c0-98.97-80.23-179.2-179.2-179.2s-179.2 80.23-179.2 179.2v187.733c0 98.969 80.23 179.2 179.2 179.2zM322.137 693.332c-56.554 0-102.4-45.846-102.4-102.4v-187.733c0-56.554 45.846-102.4 102.4-102.4s102.4 45.846 102.4 102.4v187.733c0 56.554-45.846 102.4-102.4 102.4zM979.203 957.867c23.561 0 42.667-19.103 42.667-42.667v-406.471c0-23.565-19.106-42.667-42.667-42.667h-76.8l-166.234-91.588c-11.374-6.267-25.302 1.961-25.302 14.948v76.64h-143.45v76.8h220.25v-52.33l94.981 52.33h62.421v338.204h-529.068l0.001-59.732-76.801-0.001v93.867c0 23.564 19.103 42.667 42.667 42.667zM635.319 744.533c21.137 0 38.272-17.135 38.272-38.272s-17.135-38.272-38.272-38.272c-21.137 0-38.272 17.135-38.272 38.272s17.135 38.272 38.272 38.272zM792.66 744.533c21.137 0 38.272-17.135 38.272-38.272s-17.135-38.272-38.272-38.272c-21.137 0-38.272 17.135-38.272 38.272s17.136 38.272 38.272 38.272z" />
<glyph unicode="&#xe902;" glyph-name="prod-aiService-css" d="M609.602 435.205l6.909-0.536c20.913-3.521 35.012-23.329 31.491-44.243-7.486-44.464-28.811-111.47-77.872-168.102-44.367-51.211-110.038-92.2-203.196-101.075v-99.917c0-21.205-17.192-38.4-38.4-38.4s-38.4 17.195-38.4 38.4v99.917c-93.157 8.875-158.828 49.864-203.194 101.075-49.061 56.631-70.386 123.638-77.872 168.102-3.521 20.913 10.578 40.722 31.491 44.243s40.721-10.578 44.243-31.491c5.924-35.18 22.999-87.641 60.185-130.565 36.017-41.574 92.57-76.343 183.549-76.343s147.531 34.769 183.548 76.343c37.187 42.924 54.262 95.385 60.185 130.565 3.522 20.913 23.329 35.012 44.243 31.491zM328.537 814.932c98.97 0 179.2-80.23 179.2-179.2v-187.733c0-98.97-80.23-179.2-179.2-179.2s-179.2 80.23-179.2 179.2v187.733c0 98.969 80.23 179.2 179.2 179.2zM328.537 738.132c-56.554 0-102.4-45.846-102.4-102.4v-187.733c0-56.554 45.846-102.4 102.4-102.4s102.4 45.846 102.4 102.4v187.733c0 56.554-45.846 102.4-102.4 102.4zM857.454 913.067c21.21 0 38.396-17.192 38.396-38.4v-426.667c0-21.208-17.186-38.4-38.396-38.4-21.208 0-38.4 17.192-38.4 38.4v426.667c0 21.208 17.192 38.4 38.4 38.4zM737.839 841.245c21.208 0 38.4-17.192 38.4-38.4v-287.644c0-21.208-17.192-38.4-38.4-38.4s-38.4 17.192-38.4 38.4v287.644c0 21.208 17.193 38.4 38.4 38.4zM977.070 794.312c21.205 0 38.4-17.192 38.4-38.4v-190.577c0-21.208-17.195-38.4-38.4-38.4s-38.4 17.192-38.4 38.4v190.577c0 21.208 17.195 38.4 38.4 38.4zM618.67 760.534c21.208 0 38.4-17.192 38.4-38.4v-124.8c0-21.208-17.192-38.4-38.4-38.4s-38.4 17.192-38.4 38.4v124.8c0 21.208 17.192 38.4 38.4 38.4z" />
<glyph unicode="&#xe903;" glyph-name="prod-applicationService-captcha" d="M510.635 831.744l-342.869-137.557c-3.345-1.485-5.636-4.777-5.636-8.605 0-0.095 0.001-0.19 0.004-0.284v0.014-191.147c0-185.429 143.701-374.869 351.573-428.459 207.616 53.419 348.16 242.176 348.16 428.544v191.147c0.004 0.106 0.007 0.23 0.007 0.354 0 3.829-2.292 7.122-5.579 8.582l-0.060 0.024-339.712 137.387c-0.87 0.371-1.882 0.587-2.944 0.587s-2.074-0.216-2.994-0.606l0.050 0.019zM484.523 911.701c8.605 3.574 18.599 5.65 29.079 5.65 10.559 0 20.626-2.108 29.803-5.925l-0.514 0.19 339.712-137.387c33.707-13.653 56.064-49.067 56.064-88.747v-191.232c0-238.592-179.968-461.141-424.96-515.584-244.224 54.443-428.373 276.992-428.373 515.584v190.976c0 39.765 22.528 75.264 56.32 88.747l342.784 137.813zM648.704 408.917c-18.039-60.25-72.98-103.408-138-103.408-79.411 0-143.787 64.375-143.787 143.787s64.375 143.787 143.787 143.787c31.682 0 60.971-10.247 84.733-27.607l-0.407 0.284-40.96-23.723c-2.559-1.505-4.25-4.245-4.25-7.381 0-3.918 2.64-7.219 6.238-8.221l0.060-0.014 125.099-33.536c0.679-0.194 1.459-0.306 2.266-0.306 3.911 0 7.207 2.631 8.216 6.22l0.014 0.060 33.536 125.184c0.198 0.685 0.312 1.472 0.312 2.285 0 4.713-3.821 8.533-8.533 8.533-1.594 0-3.085-0.437-4.361-1.197l0.039 0.022-47.189-27.307c-39.799 39.229-94.478 63.454-154.816 63.454-121.827 0-220.587-98.76-220.587-220.587s98.76-220.587 220.587-220.587c107.536 0 197.1 76.95 216.632 178.79l0.221 1.382h-78.848z" />
<glyph unicode="&#xe904;" glyph-name="prod-aiService-papagoSmt" d="M85.333 533.333v298.667c0 23.564 19.103 42.667 42.667 42.667v0h768c23.564 0 42.667-19.103 42.667-42.667v0-256h28.672c0.004 0 0.009 0 0.014 0 4.713 0 8.533-3.821 8.533-8.533 0-2.084-0.747-3.993-1.987-5.475l0.011 0.013-67.072-80.213c-1.576-1.893-3.934-3.089-6.571-3.089s-4.994 1.196-6.56 3.075l-0.011 0.014-67.072 80.213c-1.23 1.468-1.977 3.378-1.977 5.461 0 4.713 3.821 8.533 8.533 8.533 0.005 0 0.010 0 0.015 0h28.671v221.867h-699.733v-264.363l-76.8-0.171zM938.667 64.341v298.667l-76.8-0.171v-264.363h-699.733v221.867h28.672c0.004 0 0.009 0 0.014 0 4.713 0 8.533 3.821 8.533 8.533 0 2.084-0.747 3.993-1.987 5.475l0.011-0.013-67.072 80.213c-1.576 1.893-3.934 3.089-6.571 3.089s-4.994-1.196-6.56-3.075l-0.011-0.014-67.072-80.213c-1.23-1.468-1.977-3.378-1.977-5.461 0-4.713 3.821-8.533 8.533-8.533 0.005 0 0.010 0 0.015 0h28.671v-256c0-23.564 19.103-42.667 42.667-42.667v0h768c23.564 0 42.667 19.103 42.667 42.667v0zM332.971 365.141l-0.171-0.171v0.512l0.171-0.341zM332.971 365.141l29.696-44.032c147.627 90.112 168.107 119.979 168.107 209.664v80.64h-190.293v-48.469h133.632v-29.867c0-65.707-7.68-88.32-141.141-167.936zM708.267 497.749h-57.173v150.784h-56.576v-413.525h56.576v213.845h57.173v48.981z" />
<glyph unicode="&#xe905;" glyph-name="prod-aiService-papagoNmt" d="M789.333 362.667l5.291-0.171 10.353-0.457c5.427-0.438 10.791-1.101 16.081-1.981l-11.281 1.535c5.414-0.573 10.762-1.371 16.032-2.385l14.565-3.4c81.262-22.353 140.96-96.776 140.96-185.142 0-106.035-85.965-192-192-192-83.947 0-155.311 53.877-181.403 128.937l-3.646 11.686c-29.353-8.224-60.305-12.622-92.285-12.622s-62.932 4.398-92.285 12.622l-3.646-11.686c-26.092-75.060-97.456-128.937-181.403-128.937-106.039 0-192 85.965-192 192 0 88.366 59.695 162.789 140.959 185.142l14.547 3.394c5.277 1.015 10.631 1.815 16.052 2.389l-11.266-1.529c5.28 0.877 10.632 1.539 16.048 1.976l-4.781-0.448c4.998 0.529 10.053 0.866 15.158 1.004l5.285 0.071c8.926 0 17.71-0.609 26.312-1.788 89.247-12.231 158.951-85.795 165.227-176.808l-1.5 14.14c27.331-9.551 56.706-14.742 87.294-14.742s59.964 5.192 87.294 14.742c-1.292-8.995-1.961-18.191-1.961-27.542 0 106.037 85.961 191.998 192 191.998zM789.333 285.867c-63.623 0-115.2-51.577-115.2-115.2s51.577-115.2 115.2-115.2c63.623 0 115.2 51.577 115.2 115.2s-51.577 115.2-115.2 115.2zM234.667 285.867c-63.623 0-115.2-51.577-115.2-115.2s51.577-115.2 115.2-115.2c63.623 0 115.2 51.577 115.2 115.2s-51.577 115.2-115.2 115.2zM251.963 238.932h-31.184v-19.264h-52.675v-30.281h25.744c3.214-12.982 10.805-25.896 20.186-37.526-11.077-8.393-23.239-14.604-34.725-16.591l-9.849-1.705 11.953-29.57 6.519 1.254c16.993 3.284 33.946 12.764 48.701 24.507 14.624-11.756 31.555-20.941 48.67-24.481l6.591-1.365 11.988 29.655-9.85 1.705c-11.465 1.985-23.606 8.177-34.668 16.549 9.549 11.69 16.982 24.609 20.144 37.569h25.128v30.281h-52.675v19.264zM803.476 245.333h-27.201l-50.598-135.647h36.199l12.165 33.714h32.093l11.817-33.714h37.609l-52.084 135.647zM490.667 917.333c101.62 0 184.802-78.947 191.557-178.855l0.443-13.144c0 6.365-0.31 12.657-0.915 18.863 102.529-58.887 171.581-169.478 171.581-296.196 0-31.98-4.398-62.932-12.622-92.285-5.115 1.405-9.967 2.539-14.885 3.486-1.6 0.31-3.189 0.595-4.785 0.86-3.71 0.615-7.472 1.127-11.267 1.529l-2.847 0.282-1.952 0.166c-5.16 0.416-10.377 0.628-15.643 0.628v0.002c-4.676 0-9.313-0.167-13.905-0.496l-9.774-0.951c-0.88-0.108-1.757-0.222-2.633-0.342l-1.23-0.171c9.551 27.331 14.742 56.706 14.742 87.294 0 86.399-41.42 163.123-105.487 211.4 0.102 0.279 0.204 0.559 0.305 0.839v0c-26.645-73.987-97.485-126.907-180.685-126.907-73.023 0-136.525 40.766-168.989 100.781l-6.276 12.705c1.939-4.322 4.033-8.559 6.276-12.705l0.835-1.526c-46.438-47.664-75.046-112.784-75.046-184.587 0-30.589 5.192-59.964 14.742-87.294-0.393 0.057-0.787 0.112-1.182 0.166-0.924 0.125-1.802 0.239-2.682 0.348l-9.774 0.951-13.905 0.496c-1.777 0-3.548-0.024-5.313-0.072-3.449-0.095-6.903-0.281-10.331-0.558-1.617-0.129-3.211-0.278-4.8-0.446-3.794-0.403-7.556-0.916-11.282-1.535l-3.019-0.525-1.75-0.33c-4.918-0.946-9.77-2.080-14.547-3.394-8.561 29.262-12.959 60.214-12.959 92.193 0 107.925 50.090 204.152 128.289 266.701 0.642-11.254 2.144-21.789 4.463-32.014 0.407-1.793 0.835-3.56 1.287-5.317 0.846-3.294 1.79-6.595 2.819-9.857l1.681-5.077c-1.717 4.962-3.214 9.929-4.511 14.976l2.854-9.971c-1.577 4.991-2.955 10.071-4.125 15.229-2.319 10.219-3.822 20.747-4.439 31.513l-0.318 11.149c0 106.039 85.961 192 192 192zM490.667 840.533c-63.623 0-115.2-51.577-115.2-115.2s51.577-115.2 115.2-115.2c63.623 0 115.2 51.577 115.2 115.2s-51.577 115.2-115.2 115.2zM552.958 773.974h-128v-39.243h88.911v-63.91h39.089v103.153z" />
<glyph unicode="&#xe906;" glyph-name="qustionmark" d="M435.2 81.067h136.533v-136.533h-136.533v136.533zM575.317 451.499c75.349 30.72 122.795 108.885 119.979 189.781-5.547 100.437-83.712 178.603-184.149 178.603-2.753 0.14-5.977 0.22-9.219 0.22-51.64 0-98.545-20.269-133.195-53.286l0.078 0.074c-35.932-35.712-58.277-85.059-58.624-139.625v-0.066h-139.52c0 92.16 36.267 175.787 103.253 240.043s153.515 97.707 245.589 92.16c167.424-5.547 306.944-145.067 315.307-315.307 0.14-3.621 0.219-7.874 0.219-12.144 0-140.067-85.586-260.145-207.315-310.789l-2.227-0.821c-30.72-11.093-52.992-47.445-52.992-83.627v-44.715h-139.52v44.629c0 94.891 58.624 181.419 142.336 214.869z" />
<glyph unicode="&#xe907;" glyph-name="refresh" d="M859.307 565.76c-50.358 146.094-186.658 249.173-347.034 249.173-0.096 0-0.192 0-0.288 0h0.015c-161.28 0-298.667-104.107-347.307-249.173h-106.667c53.857 203.892 236.646 351.767 453.973 351.767s400.116-147.876 453.237-348.497l0.736-3.27h-106.667zM164.693 331.093c50.283-146.41 186.691-249.798 347.279-250.027h0.028c160.616 0.228 297.023 103.616 346.535 247.447l0.772 2.58h106.667c-53.364-204.187-236.177-352.427-453.613-352.427-0.127 0-0.254 0-0.381 0h0.020c-219.307 0-402.773 150.187-453.973 352.427h106.667zM981.333 787.627v-200.533c0-11.947-9.387-21.333-21.333-21.333h-200.533c-18.773 0-28.16 23.040-15.36 36.693l200.533 200.533c3.887 4.032 9.335 6.536 15.367 6.536 11.782 0 21.333-9.551 21.333-21.333 0-0.198-0.003-0.395-0.008-0.592l0.001 0.029zM42.667 108.373v200.533c0 11.947 9.387 21.333 21.333 21.333h200.533c18.773 0 28.16-23.040 15.36-36.693l-200.533-200.533c-3.887-4.032-9.335-6.536-15.367-6.536-11.782 0-21.333 9.551-21.333 21.333 0 0.198 0.003 0.395 0.008 0.592l-0.001-0.029z" />
<glyph unicode="&#xe908;" glyph-name="prod-aiService-papagoRomanizer" d="M392.533 704c0-75.405-61.128-136.533-136.533-136.533s-136.533 61.128-136.533 136.533v0c0 75.405 61.128 136.533 136.533 136.533s136.533-61.128 136.533-136.533v0zM256 490.667c117.821 0 213.333 95.513 213.333 213.333s-95.513 213.333-213.333 213.333v0c-117.821 0-213.333-95.513-213.333-213.333s95.513-213.333 213.333-213.333v0zM904.533 192c0-75.405-61.128-136.533-136.533-136.533s-136.533 61.128-136.533 136.533v0c0 75.405 61.128 136.533 136.533 136.533s136.533-61.128 136.533-136.533v0zM768-21.333c117.821 0 213.333 95.513 213.333 213.333s-95.513 213.333-213.333 213.333v0c-117.821 0-213.333-95.513-213.333-213.333s95.513-213.333 213.333-213.333v0zM786.944 277.333h-29.781l-57.429-154.027h37.12l14.251 39.509h41.131l13.824-39.509h38.741l-57.856 154.027zM762.453 194.56l7.339 22.443 0.853 2.475c0.359 0.898 0.767 2.119 1.12 3.363l0.074 0.306 1.024-3.072c0.366-1.294 0.715-2.316 1.108-3.315l-0.084 0.243 7.339-22.357h-18.773zM179.2 756.907h144.981v-116.48h-44.203v71.851h-100.779v44.629zM840.021 460.8c20.696 0.654 37.224 17.588 37.224 38.382 0 0.426-0.007 0.851-0.021 1.274l0.002-0.062c-4.779 147.968-106.325 279.040-244.309 306.859l-0.939 30.293c-0.125 4.615-3.897 8.309-8.53 8.309-2.046 0-3.924-0.72-5.394-1.921l0.015 0.012-94.293-75.605c-1.962-1.577-3.207-3.977-3.207-6.667 0-2.878 1.425-5.423 3.607-6.969l0.027-0.018 98.987-69.376c1.358-0.954 3.046-1.524 4.868-1.524 4.713 0 8.533 3.821 8.533 8.533 0 0.086-0.001 0.172-0.004 0.257v-0.013l-1.109 34.901c90.709-27.477 161.451-119.723 164.949-229.547 0.7-20.658 17.615-37.139 38.379-37.139 0.427 0 0.853 0.007 1.277 0.021l-0.062-0.002zM183.979 435.2c-20.696-0.654-37.224-17.588-37.224-38.382 0-0.426 0.007-0.851 0.021-1.274l-0.002 0.062c4.779-147.883 106.24-278.955 244.224-306.773l1.024-32.939c0.125-4.615 3.897-8.309 8.53-8.309 2.046 0 3.924 0.72 5.394 1.921l-0.015-0.012 94.293 75.605c1.962 1.577 3.207 3.977 3.207 6.667 0 2.878-1.425 5.423-3.607 6.969l-0.027 0.018-98.987 69.376c-1.358 0.954-3.046 1.524-4.868 1.524-4.713 0-8.533-3.821-8.533-8.533 0-0.086 0.001-0.172 0.004-0.257v0.013l1.024-32.256c-90.624 27.477-161.28 119.637-164.864 229.376-0.654 20.696-17.588 37.224-38.382 37.224-0.426 0-0.851-0.007-1.274-0.021l0.062 0.002z" />
<glyph unicode="&#xe909;" glyph-name="prod-applicationService-geolocation" d="M426.669 911.001c140.429 0 251.733-117.948 251.733-259.527 0-68.765-30.944-145.131-67.205-211.901 209.364-45.513 365.868-231.813 365.868-454.437h-76.8c0 36.983-5.171 72.772-14.839 106.667h-131.058c4.334-34.295 6.639-69.999 6.705-106.59l-76.8-0.145c-0.067 37.18-2.656 72.96-7.379 106.735h-126.705v-106.667h-76.8v106.667h-131.669c-4.755-33.792-7.391-69.598-7.527-106.803l-76.799 0.282c0.133 36.565 2.483 72.243 6.845 106.522h-125.696c-9.645-33.894-14.806-69.683-14.806-106.667h-76.8c0 169.847 90.924 318.587 227.009 399.759-5.382 8.644-10.723 17.468-15.97 26.43-42.607 72.784-83.039 161.358-83.039 240.148 0 142.14 111.846 259.527 251.733 259.527zM557.951 351.803c-2.595-3.897-5.185-7.741-7.762-11.528v-171.674h111.495c-9.566 36.608-21.817 69.541-36.063 97.703-21.142 41.797-44.574 69.551-67.67 85.498zM379.805 237.411c-8.689-21.035-16.37-44.083-22.835-68.809h116.419v68.681c-24.943-28.186-68.692-28.148-93.584 0.129zM316.523 320.827c-61.944-36.123-112.931-88.918-146.878-152.225h108.238c11.356 49.089 27.133 93.851 46.581 132.349l2.616 5.098c-3.463 4.787-6.987 9.717-10.557 14.778zM672.519 338.739c7.792-12.017 15.009-24.674 21.633-37.769 19.476-38.502 35.271-83.271 46.614-132.368h113.495c-40.155 74.739-104.090 134.835-181.742 170.138zM426.669 834.201c-94.999 0-174.933-80.487-174.933-182.728 0-56.868 30.839-130.152 72.518-201.349 35.395-60.464 75.732-114.694 102.392-148.447 26.66 33.798 67.011 88.107 102.42 148.612 41.698 71.251 72.536 144.504 72.536 201.184 0 101.889-79.596 182.728-174.933 182.728zM380.020 706.199v-190.511h-42.95v190.511h42.95zM482.505 706.199c42.525-0.425 66.764-20.837 66.764-56.983v-5.103c0-27.641-17.435-59.535-66.764-59.535h-30.193v-68.89h-42.95v190.512h73.143zM481.229 668.352h-28.917l0.425-46.352h25.94c23.389 0 28.066 8.93 28.066 22.113v4.678c0 12.332-4.252 19.561-25.515 19.561z" />
<glyph unicode="&#xe90a;" glyph-name="print" d="M811.52 579.413h-128c-11.947 0-21.333-9.387-21.333-21.333v-59.733c0-11.947 9.387-21.333 21.333-21.333h128c11.947 0 21.333 9.387 21.333 21.333v59.733c0 11.947-9.387 21.333-21.333 21.333zM276.48 925.867c-46.933 0-85.333-38.4-85.333-85.333v-85.333h-63.147c-46.933 0-85.333-38.4-85.333-85.333v-386.56c0-46.933 38.4-85.333 85.333-85.333h63.147v-142.507c0-46.933 38.4-85.333 85.333-85.333h471.040c46.933 0 85.333 38.4 85.333 85.333v142.507h63.147c46.933 0 85.333 38.4 85.333 85.333v386.56c0 46.933-38.4 85.333-85.333 85.333h-63.147v85.333c0 46.933-38.4 85.333-85.333 85.333h-471.040zM293.547 823.467h436.907v-68.267h-436.907v68.267zM145.067 300.373v352.427h733.867v-352.427h-46.080v17.067c0 46.933-38.4 85.333-85.333 85.333h-471.040c-46.933 0-85.333-38.4-85.333-85.333v-17.067h-46.080zM293.547 300.373h436.907v-227.84h-436.907v227.84z" />
<glyph unicode="&#xe90b;" glyph-name="prod-applicationService-maps" d="M260.267 636.501c0 142.080 111.787 259.499 251.733 259.499 140.459 0 251.733-117.931 251.733-259.499 0-62.976-25.771-131.584-56.917-192.427-31.573-61.867-71.168-120.32-103.253-164.011-20.729-28.557-54.002-46.913-91.563-46.913s-70.833 18.356-91.337 46.587l-0.225 0.326c-35.804 47.427-70.046 101.028-100.038 157.239l-3.215 6.601c-31.147 60.928-56.917 129.536-56.917 192.597zM512 819.2c-94.976 0-174.933-80.469-174.933-182.699 0-44.544 19.029-100.011 48.469-157.611 29.013-56.747 65.877-111.445 96.768-153.259 15.36-20.821 44.032-20.821 59.392 0 30.805 41.899 67.755 96.683 96.683 153.344 29.525 57.685 48.64 113.067 48.64 157.525-0.085 101.888-79.787 182.699-175.019 182.699zM512.853 600.491c37.547 0 68.011 29.611 68.011 66.219-0.526 36.686-30.389 66.224-67.151 66.224-0.302 0-0.604-0.002-0.906-0.006h0.046c-0.256 0.004-0.557 0.006-0.86 0.006-36.762 0-66.625-29.538-67.15-66.175l-0.001-0.050c0-36.608 30.464-66.219 68.011-66.219zM854.016 371.2h-86.869v76.8h113.749c0.010 0 0.022 0 0.035 0 20.083 0 36.925-13.875 41.463-32.562l0.060-0.292 80.555-341.333c0.727-2.948 1.144-6.332 1.144-9.813 0-23.564-19.103-42.667-42.667-42.667-0.012 0-0.024 0-0.036 0h-898.985c-0.010 0-0.022 0-0.035 0-23.564 0-42.667 19.103-42.667 42.667 0 3.481 0.417 6.866 1.204 10.105l-0.060-0.292 80.555 341.333c4.598 18.978 21.44 32.853 41.523 32.853 0.012 0 0.024 0 0.036 0h119.294v-76.8h-92.331l-64.427-273.067h812.885l-64.427 273.067z" />
<glyph unicode="&#xe90c;" glyph-name="prod-applicationService-sens" d="M768 917.333c47.128 0 85.333-38.205 85.333-85.333v-768c0-47.13-38.205-85.333-85.333-85.333h-512c-47.128 0-85.333 38.204-85.333 85.333v768c0 47.128 38.205 85.333 85.333 85.333zM776.533 157.863h-529.067v-93.863c0-4.71 3.82-8.533 8.533-8.533h512c4.713 0 8.533 3.823 8.533 8.533v93.863zM511.998 140.799c18.851 0 34.133-15.281 34.133-34.133 0-18.85-15.282-34.133-34.133-34.133s-34.133 15.283-34.133 34.133c0 18.851 15.281 34.133 34.133 34.133zM776.533 712.532h-529.067v-477.869h529.067v477.869zM371.433 524.797c24.635 0 44.606-19.971 44.606-44.605s-19.971-44.606-44.606-44.606c-24.635 0-44.606 19.971-44.606 44.606s19.971 44.605 44.606 44.605zM512.003 524.797c24.635 0 44.606-19.971 44.606-44.605s-19.971-44.606-44.606-44.606c-24.636 0-44.606 19.971-44.606 44.606s19.971 44.605 44.606 44.605zM652.181 524.797c24.635 0 44.606-19.971 44.606-44.605s-19.971-44.606-44.606-44.606c-24.636 0-44.606 19.971-44.606 44.606s19.971 44.605 44.606 44.605zM768 840.533h-512c-4.713 0-8.533-3.82-8.533-8.533v-42.668h529.067v42.668c0 4.713-3.82 8.533-8.533 8.533z" />
<glyph unicode="&#xe90d;" glyph-name="prod-applicationService-nShortUrl" d="M962.816 847.872l-143.36-143.872h76.544c47.128 0 85.333-38.205 85.333-85.333v-469.333c0-47.128-38.205-85.333-85.333-85.333h-713.984l-69.719-70.061c-6.962-7.005-16.606-11.341-27.262-11.341-21.228 0-38.437 17.209-38.437 38.437 0 10.572 4.268 20.146 11.173 27.093l143.36 143.872h-73.131c-47.128 0-85.333 38.205-85.333 85.333v469.333c0 47.128 38.205 85.333 85.333 85.333h710.571l69.824 70.082c7.011 7.531 17.012 12.242 28.113 12.242 21.208 0 38.4-17.192 38.4-38.4 0-11.059-4.675-21.025-12.177-28.052zM277.589 268.8l270.763 271.787h-428.885v-263.253c0-4.713 3.821-8.533 8.533-8.533v0h149.589zM119.467 617.387h505.344l137.216 137.813h-634.027c-4.713 0-8.533-3.821-8.533-8.533v0-129.28zM742.997 627.2l-138.581-139.093h300.117v130.56c0 4.713-3.821 8.533-8.533 8.533v0h-153.003zM527.957 411.307l-269.397-270.507h637.44c4.713 0 8.533 3.821 8.533 8.533v0 261.973h-376.576zM213.333 686.933c0-16.495-13.372-29.867-29.867-29.867s-29.867 13.372-29.867 29.867v0c0 16.495 13.372 29.867 29.867 29.867s29.867-13.372 29.867-29.867v0zM277.333 657.067c16.495 0 29.867 13.372 29.867 29.867s-13.372 29.867-29.867 29.867v0c-16.495 0-29.867-13.372-29.867-29.867s13.372-29.867 29.867-29.867v0zM401.067 686.933c0-16.495-13.372-29.867-29.867-29.867s-29.867 13.372-29.867 29.867v0c0 16.495 13.372 29.867 29.867 29.867s29.867-13.372 29.867-29.867v0z" />
<glyph unicode="&#xe90e;" glyph-name="prod-security-fileSafer" d="M691.2 665.6v-233.387l14.507 5.205c8.668 3.249 18.685 5.13 29.141 5.13s20.473-1.881 29.731-5.322l-0.59 0.192 4.011-1.621v282.795c0 0.006 0 0.013 0 0.020 0 24.323-10.176 46.269-26.503 61.813l-0.035 0.033-119.467 113.408c-15.256 14.514-35.937 23.449-58.706 23.467h-392.622c-47.128 0-85.333-38.205-85.333-85.333v0-768c0-47.128 38.205-85.333 85.333-85.333v0h486.997c-16.683 7.94-30.777 16.068-44.172 25.15l1.164-0.744c-22.833 15.381-42.631 32.659-60.069 52.098l-0.262 0.297h-383.659c-4.713 0-8.533 3.821-8.533 8.533v0 768c0 4.713 3.821 8.533 8.533 8.533v0h345.6v-128c0-25.941 20.992-46.933 46.933-46.933h128zM593.067 815.445l76.885-73.045h-76.885v73.045zM238.933 588.8h375.467v-76.8h-375.467v76.8zM443.733 435.2h-204.8v-76.8h204.8v76.8zM238.933 281.6h204.8v-76.8h-204.8v76.8zM671.061 343.211l60.757 22.016c0.863 0.322 1.86 0.508 2.901 0.508s2.038-0.186 2.96-0.528l-0.059 0.019 161.28-58.88c3.312-1.222 5.63-4.351 5.632-8.021v0-75.093c0-29.269-9.131-59.563-26.027-87.467l-207.36 207.445zM591.36 314.283l236.203-236.117c-25.6-20.565-56.832-36.949-92.672-46.336-104.789 27.563-171.691 113.92-171.691 191.317v75.008c0.002 3.67 2.32 6.799 5.632 8.021l22.528 8.107zM763.989 437.333c-8.713 3.286-18.785 5.188-29.301 5.188-10.428 0-20.42-1.871-29.657-5.295l0.591 0.192-162.987-59.051c-33.080-12.25-56.232-43.528-56.235-80.213v0-75.008c0-124.928 106.837-241.493 248.405-270.080 142.165 28.501 246.528 145.067 246.528 270.080v75.093c0 0.017 0 0.037 0 0.057 0 36.624-23.072 67.859-55.475 79.964l-0.589 0.193-161.28 58.88z" />
<glyph unicode="&#xe90f;" glyph-name="prod-networking-dns" d="M874.667 960c46.805 0 85.333-38.526 85.333-85.333v-665.6c0-5.94-0.623-11.747-1.801-17.359 1.186-9.406 1.801-18.992 1.801-28.72 0-125.364-101.623-226.988-226.987-226.988-111.974 0-205.012 81.084-223.605 187.733h-360.075c-46.808 0-85.333 38.525-85.333 85.333v665.6c0 46.808 38.525 85.333 85.333 85.333zM756.485 123.733h-46.49c3.661-29.38 11.282-60.655 23.305-96.35 12.139 35.328 19.756 66.5 23.184 96.35zM641.289 123.733h-53.281c10.703-39.629 37.221-72.772 72.365-92.228-9.566 32.188-15.987 62.481-19.084 92.228zM878.037 123.8c-1.118-0.044-2.244-0.067-3.371-0.067h-49.545c-2.862-30.054-9.174-60.151-18.633-91.759 34.749 19.524 60.942 52.48 71.549 91.825zM805.348 294.639c9.827-32.88 16.382-63.766 19.476-94.106h49.842c1.161 0 2.381 0.282 3.567 0.893-10.581 40.108-37.348 73.646-72.886 93.213zM732.725 297.734c-12.254-35.663-19.9-67.089-23.281-97.201h46.692c-3.619 29.626-11.271 61.164-23.411 97.201zM883.2 669.014h-742.4v-459.948c0-1.95 0.803-4.097 2.62-5.914s3.964-2.62 5.914-2.62h359.784c17.893 107.494 111.325 189.441 223.896 189.441 57.588 0 110.167-21.446 150.187-56.787v335.827zM659.846 294.177c-35.384-19.778-61.944-53.455-72.288-93.644h53.265c2.854 30.66 9.301 61.36 19.023 93.644zM673.277 634.88c26.453 0 46.933-5.12 65.707-17.92l3.413-2.56-21.333-35.84-4.267 2.56c-15.36 10.24-27.307 11.947-43.52 11.947-23.893 0-33.28-11.947-33.28-19.627v-3.413c0-13.653 11.947-17.067 34.987-22.187l1.707-0.853h5.12c46.933-11.947 67.413-30.72 67.413-64v-3.413c0-41.813-28.16-64-79.36-64-28.16 0-58.027 9.387-75.947 24.747l-3.413 2.56 22.187 36.693 4.267-3.413c13.653-11.947 34.133-18.773 53.76-18.773s32.427 6.827 32.427 19.627v3.413c0 12.8-8.533 18.773-32.427 23.893h-4.267c-33.28 7.68-70.827 16.213-70.827 64.853v3.413c0 30.72 23.893 62.293 77.653 62.293zM273.917 630.613c60.587 0 93.013-31.573 93.013-92.16v-29.013c0-62.293-29.867-92.16-92.16-92.16h-75.947v213.333zM446.29 631.467l70.827-126.293c0.853-2.56 4.267-8.533 4.267-8.533v134.827h42.667v-213.333h-48.64l-70.827 126.293c-1.707 2.56-4.267 7.68-4.267 7.68v-133.973h-42.667v213.333h48.64zM269.65 591.36h-25.6v-133.973h25.6c36.693 0 52.053 16.213 52.053 53.76v26.453c0 38.4-14.507 53.76-52.053 53.76zM874.667 883.2h-725.333c-1.95 0-4.097-0.803-5.914-2.62s-2.62-3.964-2.62-5.914v-128.852h742.4v128.852c0 1.95-0.802 4.097-2.62 5.914s-3.959 2.62-5.914 2.62zM208.217 848.213c18.851 0 34.133-15.281 34.133-34.133s-15.282-34.133-34.133-34.133c-18.851 0-34.133 15.282-34.133 34.133s15.282 34.133 34.133 34.133zM310.612 848.213c18.851 0 34.133-15.281 34.133-34.133s-15.282-34.133-34.133-34.133c-18.851 0-34.133 15.282-34.133 34.133s15.282 34.133 34.133 34.133zM413.018 848.213c18.852 0 34.133-15.281 34.133-34.133s-15.281-34.133-34.133-34.133c-18.851 0-34.133 15.282-34.133 34.133s15.282 34.133 34.133 34.133z" />
<glyph unicode="&#xe910;" glyph-name="prod-businessApplication-naverWorks" d="M968.081 826.137h-183.916c-26.385 0-49.176-18.452-54.666-44.259l-33.646-158.146c-47.753 40.085-107.84 65.758-182.531 65.758-76.056 0-136.943-25.684-185.137-65.989l-33.686 158.335c-5.49 25.807-28.281 44.259-54.666 44.259h-183.917c-36.153 0-62.793-33.806-54.341-68.956l154.965-644.453c6.040-25.117 28.507-42.824 54.341-42.824h166.061c33.158 0 58.458 28.493 55.706 60.545 1.882 84.609 14.906 159.473 34.131 212.169 9.848 26.994 20.567 46.064 30.548 57.672 10.022 11.654 15.831 12.086 16.934 12.086h0.010c0.154 0.002 1.21 0.013 3.593-1.447 2.707-1.658 6.705-4.999 11.596-11.204 9.973-12.656 20.449-33.108 29.972-61.188 18.908-55.755 31.135-132.795 32.626-212.838 0.29-15.566 6.959-29.784 17.624-39.887-10.666 10.103-17.335 24.321-17.626 39.887-0.055 2.956-0.125 5.908-0.209 8.855-5.364-33.664 20.655-64.606 55.208-64.606h166.061c25.834 0 48.305 17.707 54.339 42.823l154.965 644.453c8.457 35.151-18.185 68.956-54.34 68.956zM347.267 533.809c41.505 48.73 95.65 78.294 166.055 78.294 103.653 0 172.884-67.492 217.824-166.389 43.372-95.444 59.694-212.305 59.447-297.842h-121.772c-3.154 78.736-15.811 155.639-36.102 215.473-10.969 32.343-24.911 61.943-42.479 84.235-17.288 21.937-42.599 42.138-75.979 42.138-31.958 0-57.341-17.772-75.61-39.016-18.308-21.291-32.975-49.815-44.572-81.604-2.514-6.892-4.919-14.036-7.213-21.415l-39.599 186.127zM801.6 477.73c-11.794 25.953-25.661 51.18-41.812 74.638l41.781 196.384h139.239l-96.168-399.92c-10.295 43.882-24.39 87.856-43.040 128.899zM227.82 147.249l-144.627 601.461h139.236l127.962-601.461h-122.571z" />
<glyph unicode="&#xe911;" glyph-name="prod-compute-autoScaling" d="M618.479 895.916c47.128 0 85.333-38.205 85.333-85.333v-42.667h42.667c47.128 0 85.333-38.205 85.333-85.333v-42.5h43.042c47.13 0 85.333-38.205 85.333-85.333v-469.332c0-47.13-38.204-85.333-85.333-85.333h-469.333c-47.129 0-85.333 38.204-85.333 85.333v42.498h-43.042c-47.128 0-85.333 38.205-85.333 85.333v42.667h-42.667c-47.128 0-85.333 38.205-85.333 85.333v469.333c0 47.128 38.205 85.333 85.333 85.333zM874.854 563.283h-425.269l166.537-166.537 35.558 35.558c5.116 5.116 13.877 1.944 14.532-5.262l12.542-137.964c0.482-5.308-3.964-9.754-9.271-9.271l-137.965 12.542c-7.206 0.655-10.377 9.417-5.262 14.532l35.558 35.558-164.828 164.829v-421.851c0-4.719 3.82-8.533 8.533-8.533h469.333c4.71 0 8.533 3.814 8.533 8.533v469.332c0 4.713-3.823 8.533-8.533 8.533zM746.479 691.115h-469.333c-4.713 0-8.533-3.82-8.533-8.533v-469.333c0-4.713 3.82-8.533 8.533-8.533h43.042v350.034c0 47.128 38.205 85.333 85.333 85.333h349.491v42.499c0 4.713-3.82 8.533-8.533 8.533zM618.479 819.115h-469.333c-4.713 0-8.533-3.82-8.533-8.533v-469.333c0-4.713 3.82-8.533 8.533-8.533h42.667v349.867c0 47.129 38.205 85.333 85.333 85.333h349.867v42.667c0 4.713-3.82 8.533-8.533 8.533z" />
<glyph unicode="&#xe912;" glyph-name="ico-restart" d="M665.6 848.213v-110.080c126.293-58.027 213.333-185.173 213.333-332.8 0-202.652-164.282-366.933-366.933-366.933s-366.933 164.282-366.933 366.933v0c0 147.627 87.040 274.773 213.333 332.8v110.080c-185.075-65.622-315.246-239.178-315.246-443.136 0-258.983 209.881-468.946 468.834-469.077h0.012c258.965 0.132 468.846 210.094 468.846 469.077 0 203.958-130.171 377.514-311.967 442.12l-3.279 1.016zM512 960c-28.16 0-51.2-23.040-51.2-51.2v-238.933c0-28.16 23.040-51.2 51.2-51.2s51.2 23.040 51.2 51.2v238.933c0 28.16-23.040 51.2-51.2 51.2z" />
<glyph unicode="&#xe913;" glyph-name="prod-compute-ssdServer" d="M454.902 31.853l1.883 1.468c0.263 0.207 0.525 0.414 0.788 0.622 8.022 6.354 15.698 13.226 22.938 20.532l0.976 0.992h414.513c4.71 0 8.533 3.823 8.533 8.533v200.364h-351.571l-0.703 5.553c-0.584 4.238-1.271 8.443-2.060 12.612l2.763-18.165c-0.917 7.934-2.196 15.757-3.821 23.453v0c3.619-17.13 5.525-34.917 5.525-53.15 0-70.274-28.314-133.932-74.155-180.192-8.016-8.087-16.551-15.629-25.562-22.584l2.574 2.012c-4.405-3.49-8.927-6.838-13.56-10.037 3.719 2.568 7.366 5.232 10.939 7.988zM298.667 413.867c-98.97 0-179.2-80.23-179.2-179.2s80.23-179.2 179.2-179.2c98.97 0 179.2 80.23 179.2 179.2s-80.23 179.2-179.2 179.2zM292.109 361.306c3.412 4.094 9.699 4.094 13.111 0l67.115-80.537c4.631-5.558 0.679-13.996-6.556-13.996h-32.596c-4.713 0-8.533-3.82-8.533-8.533v-149.547c0-4.715-3.82-8.529-8.533-8.529h-31.317c-4.713 0-8.533 3.814-8.533 8.529v149.547c0 4.713-3.82 8.533-8.533 8.533h-36.181c-7.235 0-11.187 8.439-6.555 13.996zM822.666 196.267v-76.8h-152.666v76.8h152.666zM822.666 486.4v-76.8h-152.666v76.8h152.666zM896 840.533h-768c-4.713 0-8.533-3.82-8.533-8.533v-200.725h785.067v200.725c0 4.713-3.823 8.533-8.533 8.533zM822.666 776.533v-76.8h-152.666v76.8h152.666zM432.834 16.6l-6.624-3.949c-8.726-5.025-17.823-9.571-27.207-13.573l2.236 0.965c-5.51-2.412-11.121-4.636-16.826-6.663l14.589 5.698c-6.191-2.64-12.507-5.043-18.936-7.198l4.347 1.5c-4.77-1.695-9.606-3.253-14.502-4.669l10.155 3.169c-6.018-2.017-12.137-3.816-18.345-5.389l8.19 2.22c-5.081-1.469-10.227-2.785-15.432-3.943l7.242 1.722c-4.46-1.13-8.966-2.142-13.516-3.034l6.274 1.312c-5.983-1.33-12.045-2.451-18.178-3.355l11.904 2.043c-5.377-1.054-10.814-1.94-16.306-2.652l4.402 0.609c-5.189-0.765-10.429-1.373-15.715-1.822l-5.5-0.407-16.422-0.518c-141.385 0-256 114.611-256 256 0 5.546 0.176 11.050 0.524 16.508 0.113 1.785 0.247 3.584 0.399 5.377l-0.399-5.377c0.359 5.644 0.901 11.238 1.62 16.776l-1.222-11.399c0.45 5.313 1.062 10.579 1.831 15.794l-0.609-4.395c0.724 5.576 1.627 11.096 2.704 16.553l-2.095-12.158c0.901 6.107 2.017 12.144 3.341 18.102l-1.247-5.944c0.879 4.457 1.874 8.872 2.982 13.243l-1.735-7.299c1.158 5.212 2.475 10.365 3.946 15.452 6.474 22.393 15.923 43.523 27.892 62.935 5.3 8.596 11.095 16.856 17.344 24.739l10.056 11.924 10.477 11.014c46.26 45.842 109.919 74.155 180.19 74.155 103.946 0 193.422-61.951 233.52-150.945 5.046-11.208 9.289-22.774 12.689-34.696-3.417 11.972-7.665 23.546-12.689 34.696l-0.655 1.442h373.001v213.311h-785.067v-136.987l-0.99-0.976c-7.306-7.24-14.178-14.917-20.573-22.988-0.65-0.82-1.335-1.695-2.013-2.574-5.502-7.132-10.606-14.512-15.318-22.159-1.312-2.127-2.62-4.321-3.895-6.536-10.134-17.603-18.221-36.475-23.965-56.341-0.787-2.72-1.526-5.446-2.221-8.19-0.604-2.385-1.18-4.807-1.722-7.242-0.449-2.020-0.867-4.016-1.263-6.020-0.782-3.963-1.479-8.002-2.080-12.073-0.224-1.52-0.43-3.002-0.622-4.487-0.482-3.712-0.889-7.5-1.212-11.312-0.155-1.83-0.288-3.628-0.403-5.432l-0.088-1.448-0.435-15.042v597.333c0 47.128 38.205 85.333 85.333 85.333h768c47.13 0 85.333-38.205 85.333-85.333v-768c0-47.13-38.204-85.333-85.333-85.333h-597.333c7.372 0 14.671 0.312 21.885 0.922 3.849 0.326 7.637 0.733 11.399 1.222 1.407 0.182 2.86 0.384 4.309 0.597 4.055 0.597 8.037 1.282 11.987 2.057 2.050 0.402 4.13 0.837 6.201 1.298 2.468 0.549 4.89 1.125 7.299 1.735 2.72 0.689 5.446 1.429 8.153 2.211 3.436 0.993 6.83 2.053 10.193 3.18 1.421 0.477 2.861 0.974 4.295 1.483 4.961 1.762 9.826 3.663 14.616 5.706 0.749 0.32 1.495 0.643 2.24 0.969 8.576 3.754 16.909 7.966 24.967 12.605 2.258 1.301 4.451 2.609 6.624 3.949v0z" />
<glyph unicode="&#xe914;" glyph-name="prod-compute-vds" d="M730.971 672.681l12.774-47.55 48.542-8.241c64.072-10.877 112.251-66.975 112.251-132.129 0-42.741-20.028-80.946-51.2-105.708v68.948c0 47.128-38.203 85.333-85.332 85.333h-512c-47.128 0-85.333-38.205-85.333-85.333v-48.616c-31.595 31.181-51.21 74.461-51.21 122.191 0 84.733 60.826 155.608 142.854 169.245l35.583 5.916 18.168 31.162c40.733 69.864 114.7 112.636 195.934 112.636 102.736 0 192.633-69.818 218.97-167.852zM853.338 64v226.269c75.23 32.532 128 107.458 128 194.491 0 103.308-75.887 190.816-176.196 207.846-35.289 131.362-155.429 224.728-293.14 224.728-108.673 0-207.846-57.388-262.281-150.753-119.008-19.785-207.059-122.65-207.059-245.006 0-93.338 51.715-174.833 128.010-217.333v-240.241c0-47.13 38.205-85.333 85.333-85.333h512c47.129 0 85.332 38.204 85.332 85.333zM247.473 217.6h529.067v-153.6c0-4.71-3.82-8.533-8.533-8.533h-512c-4.713 0-8.533 3.823-8.533 8.533v153.6zM247.473 294.4v153.6c0 4.713 3.82 8.533 8.533 8.533h512c4.713 0 8.533-3.82 8.533-8.533v-153.6h-529.067zM724.006 338.6v76.8h-125.333v-76.8h125.333zM598.673 96.597v76.803h125.333v-76.803h-125.333z" />
<glyph unicode="&#xe915;" glyph-name="prod-database-cubrid" d="M192 917.333c69.199 0 127.404-47.066 144.35-110.933h413.896c17.176 44.908 60.675 76.8 111.621 76.8 65.98 0 119.467-53.487 119.467-119.467s-53.487-119.467-119.467-119.467c-54.118 0-99.831 35.985-114.518 85.333h-410.999c-3.543-13.354-8.89-25.973-15.764-37.581l118.358-121.589c9.44 3.599 19.685 5.57 30.389 5.57h409.6c47.13 0 85.333-38.205 85.333-85.333v-409.6c0-47.13-38.204-85.333-85.333-85.333h-409.6c-47.129 0-85.333 38.204-85.333 85.333v409.6c0 7.936 1.084 15.619 3.11 22.909l-121.279 124.589c-9.754-5.559-20.195-10.050-31.165-13.315v-413.557c47.142-15.992 81.067-60.615 81.067-113.161 0-65.98-53.487-119.467-119.467-119.467s-119.467 53.487-119.467 119.467c0 52.546 33.925 97.168 81.067 113.161v411.291c-66.026 15.439-115.2 74.684-115.2 145.415 0 82.475 66.859 149.333 149.333 149.333zM196.267 140.8c-23.564 0-42.667-19.103-42.667-42.667 0-23.569 19.103-42.667 42.667-42.667s42.667 19.098 42.667 42.667c0 23.564-19.103 42.667-42.667 42.667zM887.467 247.468h-426.667v-166.401c0-4.71 3.82-8.533 8.533-8.533h409.6c4.71 0 8.533 3.823 8.533 8.533v166.401zM836.268 187.733v-68.267h-128.853v68.267h128.853zM878.933 499.2h-409.6c-4.713 0-8.533-3.82-8.533-8.533v-166.399h426.667v166.399c0 4.713-3.823 8.533-8.533 8.533zM836.268 443.733v-68.267h-128.853v68.267h128.853zM192 840.533c-40.059 0-72.533-32.474-72.533-72.533s32.474-72.533 72.533-72.533c40.059 0 72.533 32.474 72.533 72.533s-32.474 72.533-72.533 72.533zM861.867 806.4c-23.564 0-42.667-19.103-42.667-42.667s19.103-42.667 42.667-42.667c23.569 0 42.667 19.103 42.667 42.667s-19.098 42.667-42.667 42.667z" />
<glyph unicode="&#xe916;" glyph-name="prod-database-mssql" d="M452.267 593.068c-18.607 0-35.823-5.955-49.846-16.064-3.828-2.763-7.417-5.831-10.731-9.172 3.292 3.325 6.892 6.404 10.731 9.172 14.023 10.107 31.241 16.064 49.85 16.064h443.729c47.13 0 85.333-38.205 85.333-85.333v-443.734c0-47.13-38.204-85.333-85.333-85.333h-443.729c-18.609 0-35.827 5.957-49.851 16.067l-4.010 3.073c1.639-1.317 2.813-2.21 4.010-3.073 14.024-10.111 31.24-16.067 49.847-16.067h-324.267c-47.128 0-85.333 38.204-85.333 85.333v119.466c0 47.129 38.205 85.333 85.333 85.333h238.933v34.135h-238.933c-47.128 0-85.333 38.205-85.333 85.333v119.467c0 47.129 38.205 85.333 85.333 85.333h324.267zM366.933 191.999h-238.933c-4.713 0-8.533-3.82-8.533-8.533v-119.466c0-4.71 3.82-8.534 8.533-8.534h239.355c0.029-0.291 0.059-0.581 0.091-0.872l-0.508 9.406c0-8.167 1.147-16.065 3.289-23.544v0c-1.31 4.559-2.249 9.287-2.781 14.138l-0.508 9.406-0.004 127.999zM896 516.268h-443.729c-4.713 0-8.533-3.82-8.533-8.533v-443.734c0-4.71 3.82-8.533 8.533-8.533h443.729c4.719 0 8.533 3.823 8.533 8.533v443.734c0 4.713-3.814 8.533-8.533 8.533zM299.52 157.868v-68.268h-128.853v68.268h128.853zM635.347 256.388c4.713 0 8.533-3.82 8.533-8.533v-97.751c0-4.713-3.821-8.533-8.533-8.533h-97.751c-4.713 0-8.533 3.82-8.533 8.533v97.751c0 4.713 3.82 8.533 8.533 8.533zM810.284 256.388c4.713 0 8.533-3.82 8.533-8.533v-97.751c0-4.713-3.82-8.533-8.533-8.533h-97.75c-4.713 0-8.533 3.82-8.533 8.533v97.751c0 4.713 3.82 8.533 8.533 8.533zM635.347 430.932c4.713 0 8.533-3.82 8.533-8.533v-97.751c0-4.713-3.821-8.533-8.533-8.533h-97.751c-4.713 0-8.533 3.82-8.533 8.533v97.751c0 4.713 3.82 8.533 8.533 8.533zM810.284 430.932c4.713 0 8.533-3.82 8.533-8.533v-97.751c0-4.713-3.82-8.533-8.533-8.533h-97.75c-4.713 0-8.533 3.82-8.533 8.533v97.751c0 4.713 3.82 8.533 8.533 8.533zM389.017 565.017l-3.333-3.911c-4.063-5.063-7.561-10.599-10.397-16.512-2.047-4.262-3.742-8.703-5.061-13.304-1.304-4.568-2.24-9.279-2.772-14.112l-0.099-0.911h-239.355c-4.713 0-8.533-3.82-8.533-8.533v-119.467c0-4.713 3.82-8.533 8.533-8.533h238.933l0.004 128c0 3.192 0.175 6.343 0.517 9.445 0.523 4.811 1.462 9.54 2.772 14.112 1.321 4.597 3.020 9.048 5.061 13.304 3.575 7.466 8.22 14.344 13.73 20.423zM299.52 482.132v-68.267h-128.853v68.267h128.853zM896 917.333c47.13 0 85.333-38.205 85.333-85.333v-119.467c0-47.129-38.204-85.333-85.333-85.333h-768c-47.128 0-85.333 38.205-85.333 85.333v119.467c0 47.128 38.205 85.333 85.333 85.333h768zM896 840.533h-768c-4.713 0-8.533-3.82-8.533-8.533v-119.467c0-4.713 3.82-8.533 8.533-8.533h768c4.71 0 8.533 3.82 8.533 8.533v119.467c0 4.713-3.823 8.533-8.533 8.533zM299.52 806.398v-68.267h-128.853v68.267h128.853z" />
<glyph unicode="&#xe917;" glyph-name="prod-database-mysql" d="M674.134 593.068c5.006 0 9.91-0.431 14.679-1.258l-1.609-0.15c-5.186-0.496-10.334-1.12-15.441-1.871l17.050 2.021c-6.866-0.62-13.666-1.466-20.394-2.53-5.902-0.934-11.789-2.044-17.615-3.319-1.596-0.348-3.198-0.713-4.795-1.089-4.546-1.073-9.042-2.244-13.498-3.512-1.451-0.412-2.877-0.829-4.298-1.257-4.644-1.397-9.277-2.912-13.861-4.533-1.126-0.397-2.201-0.784-3.273-1.177-11.537-4.228-22.792-9.149-33.673-14.699-0.861-0.437-1.721-0.881-2.579-1.328-9.959-5.202-19.6-10.933-28.883-17.157-1.202-0.803-2.39-1.612-3.572-2.428-3.74-2.588-7.411-5.247-11.020-7.983-2.622-1.984-5.215-4.017-7.773-6.090 6.079 4.92 12.342 9.611 18.784 14.063l-11.006-7.967c4.754 3.605 9.616 7.074 14.58 10.403 10.084 6.761 20.59 12.94 31.471 18.49 11.873 6.056 24.193 11.363 36.896 15.858l-3.178-1.146c5.633 2.064 11.343 3.967 17.125 5.705l-13.947-4.559c5.98 2.116 12.044 4.051 18.187 5.801l-4.24-1.242c5.845 1.757 11.763 3.344 17.749 4.756l-13.508-3.514c6.034 1.718 12.145 3.257 18.325 4.61l15.756 3.017c0.629 0.103 1.259 0.205 1.889 0.305 15.748 2.489 31.895 3.782 48.343 3.782 169.664 0 307.196-137.538 307.196-307.2s-137.532-307.201-307.196-307.201c-22.748 0-44.919 2.473-66.257 7.164l17.359-3.296c-7.118 1.139-14.155 2.522-21.102 4.141l3.743-0.845c-6.11 1.343-12.152 2.868-18.12 4.569l14.377-3.725c-6.507 1.517-12.934 3.24-19.275 5.163l4.898-1.438c-6.104 1.74-12.131 3.664-18.074 5.766l13.176-4.328c-5.609 1.701-11.15 3.558-16.618 5.566-12.423 4.562-24.469 9.903-36.080 15.965-11.246 5.871-22.082 12.418-32.456 19.586l3.57-2.427c-4.969 3.331-9.834 6.804-14.592 10.412l-3.272 2.516c1.213-0.947 2.243-1.739 3.278-2.524 3.602-2.729 7.273-5.387 11.004-7.966 1.194-0.828 2.382-1.637 3.576-2.437 9.289-6.225 18.93-11.956 28.892-17.157 0.857-0.45 1.717-0.894 2.58-1.334 10.824-5.519 22.023-10.418 33.545-14.648 1.084-0.401 2.216-0.809 3.352-1.211 4.407-1.556 8.814-3.003 13.263-4.351 1.576-0.481 3.201-0.959 4.831-1.424 4.788-1.362 9.598-2.607 14.453-3.738 1.174-0.277 2.402-0.555 3.633-0.826 5.799-1.272 11.6-2.373 17.456-3.309l0.996-0.161 2.822-0.425c5.107-0.75 10.255-1.375 15.441-1.871l1.615-0.153c-4.771-0.828-9.678-1.254-14.685-1.254h-588.801c-47.128 0-85.333 38.204-85.333 85.333v119.466c0 47.129 38.205 85.333 85.333 85.333h324.732c0.090-1.637 0.192-3.27 0.307-4.9 0.315-4.379 0.714-8.71 1.202-13.014 0.249-2.243 0.534-4.531 0.844-6.811 0.529-3.848 1.12-7.654 1.781-11.435 0.313-1.822 0.643-3.615 0.989-5.403 0.751-3.861 1.577-7.732 2.475-11.575l1.236-5.111 0.529-2.049c0.154-0.594 0.31-1.187 0.467-1.78l1.821-6.36-2.289 8.139c-1.604 6.183-3.020 12.442-4.243 18.771l2.481-11.65c-1.312 5.607-2.47 11.273-3.469 16.993l0.988-5.343c-1.070 5.542-1.992 11.138-2.76 16.782l1.772-11.439c-1.057 6.049-1.937 12.158-2.635 18.322l0.863-6.884c-0.891 6.544-1.575 13.153-2.047 19.822l-0.349 5.676-0.426 16.315c0 12.123 0.702 24.082 2.068 35.838l-1.294-13.786c0.5 7.049 1.238 14.033 2.206 20.943l-0.911-7.156c0.68 5.848 1.523 11.646 2.527 17.39l-1.615-10.233c0.736 5.255 1.605 10.468 2.603 15.635l-0.988-5.401c1.202 6.88 2.633 13.681 4.284 20.395l0.946 3.742 4.775 16.501c17.499 54.399 49.512 101.976 91.49 138.361l-2.094-1.827h-428.267c-4.713 0-8.533-3.82-8.533-8.533v-119.467c0-4.713 3.821-8.533 8.533-8.533h338.871l-4.308-14.721c-0.158-0.592-0.313-1.186-0.467-1.78l4.775 16.501c-2.132-6.65-4.043-13.399-5.725-20.239-1.217-4.968-2.317-9.978-3.293-15.033-0.344-1.753-0.674-3.547-0.988-5.345-0.591-3.411-1.127-6.82-1.607-10.246-0.342-2.407-0.65-4.814-0.931-7.229-0.517-4.494-0.947-9.082-1.274-13.698l-0.32-5.010h-324.732c-47.128 0-85.333 38.205-85.333 85.333v119.467c0 47.129 38.205 85.333 85.333 85.333h588.801zM424.205 191.999h-338.871c-4.713 0-8.533-3.82-8.533-8.533v-119.466c0-4.71 3.821-8.534 8.533-8.534h428.268c0.692-0.611 1.386-1.218 2.084-1.823-41.969 36.382-73.982 83.959-91.389 138.085zM716.804 516.268c-127.247 0-230.4-103.153-230.4-230.4s103.153-230.401 230.4-230.401c127.247 0 230.396 103.154 230.396 230.401s-103.149 230.4-230.396 230.4zM256.853 157.868v-68.268h-128.853v68.268h128.853zM716.802 456.534c94.257 0 170.665-76.41 170.665-170.667s-76.408-170.667-170.665-170.667c-94.257 0-170.667 76.41-170.667 170.667s76.41 170.667 170.667 170.667zM716.802 379.734c-51.841 0-93.867-42.026-93.867-93.867s42.026-93.867 93.867-93.867c51.842 0 93.867 42.025 93.867 93.867s-42.025 93.867-93.867 93.867zM716.802 328.534c23.565 0 42.667-19.103 42.667-42.667s-19.102-42.667-42.667-42.667c-23.564 0-42.667 19.102-42.667 42.667s19.103 42.667 42.667 42.667zM256.853 482.132v-68.267h-128.853v68.267h128.853zM853.333 917.333c47.13 0 85.333-38.205 85.333-85.333v-119.467c0-47.129-38.204-85.333-85.333-85.333h-768c-47.128 0-85.333 38.205-85.333 85.333v119.467c0 47.128 38.205 85.333 85.333 85.333h768zM853.333 840.533h-768c-4.713 0-8.533-3.82-8.533-8.533v-119.467c0-4.713 3.821-8.533 8.533-8.533h768c4.71 0 8.533 3.82 8.533 8.533v119.467c0 4.713-3.823 8.533-8.533 8.533zM256.853 806.398v-68.267h-128.853v68.267h128.853z" />
<glyph unicode="&#xe918;" glyph-name="prod-database-redis" d="M655.367 938.271c21.208 0 38.4-17.192 38.4-38.4v-110.543h74.528c47.128 0 85.331-38.205 85.331-85.333v-74.226h110.66c21.205 0 38.4-17.192 38.4-38.4s-17.195-38.4-38.4-38.4h-110.66v-209.95h110.66c21.205 0 38.4-17.192 38.4-38.4s-17.195-38.4-38.4-38.4h-110.66v-74.224c0-47.129-38.203-85.333-85.331-85.333h-74.528v-110.532c0-21.205-17.192-38.4-38.4-38.4s-38.4 17.195-38.4 38.4v110.532h-209.95v-110.532c0-21.205-17.192-38.4-38.4-38.4s-38.4 17.195-38.4 38.4v110.532h-73.923c-47.128 0-85.333 38.205-85.333 85.333v74.224h-111.247c-21.208 0-38.4 17.192-38.4 38.4s17.192 38.4 38.4 38.4h111.247v209.95h-111.247c-21.208 0-38.4 17.193-38.4 38.4s17.192 38.4 38.4 38.4h111.247v74.226c0 47.128 38.205 85.333 85.333 85.333h73.923v110.543c0 21.208 17.192 38.4 38.4 38.4s38.4-17.192 38.4-38.4v-110.543h209.95v110.543c0 21.208 17.192 38.4 38.4 38.4zM768.294 712.528h-512c-4.713 0-8.533-3.82-8.533-8.533v-512c0-4.713 3.82-8.533 8.533-8.533h512c4.713 0 8.533 3.82 8.533 8.533v512c0 4.713-3.82 8.533-8.533 8.533zM614.683 593.062c23.564 0 42.667-19.103 42.667-42.667v-204.8c0-23.564-19.103-42.667-42.667-42.667h-204.8c-23.565 0-42.667 19.103-42.667 42.667v204.8c0 23.564 19.102 42.667 42.667 42.667zM580.55 516.262h-136.533v-136.533h136.533v136.533z" />
<glyph unicode="&#xe919;" glyph-name="prod-global-globalRegion" d="M76.8 448c0 38.229 4.949 75.349 14.251 110.763h92.843c7.936-28.757 25.685-53.419 49.408-70.229-0.666-10.25-1.046-22.223-1.046-34.285 0-41.443 4.484-81.84 12.993-120.73l-0.683 3.719h-153.6c-8.997 33.071-14.166 71.042-14.166 110.22 0 0.191 0 0.381 0 0.572v-0.030zM186.368 635.563h-67.243c51.107 105.002 139.973 184.961 248.506 223.231l3.057 0.939c-24.31-38.403-49.263-84-71.472-131.146l-3.366-7.948c-50.81-4.65-92.701-38.357-109.202-84.184l-0.281-0.893zM372.395 703.232c25.685 53.931 59.307 111.616 101.205 175.275v-242.944h-45.568c-10.379 28.823-29.886 52.25-54.973 67.346l-0.579 0.323zM430.507 558.763h43.093v-221.525h-150.357c-9.065 35.37-14.267 75.974-14.267 117.794 0 3.529 0.037 7.049 0.111 10.56l-0.009-0.525c57.713 0.88 106.094 39.823 121.209 92.793l0.22 0.903zM550.4 558.763h150.528l-0.732 3.41c9.835-38.844 15.063-79.523 15.068-121.426l-0.171-9.813-0.091-0.001c-57.691-0.801-106.157-39.768-121.509-93.695h-43.093v221.525zM790.955 407.296l-0.084-1.642c0.768 12.027 1.158 24.156 1.158 36.377 0 41.343-4.463 81.644-12.253 116.732h153.173l-0.7 3.052c9.773-36.271 14.985-74.413 14.985-113.772s-5.213-77.501-14.285-110.72h-92.843c-7.936 28.587-25.6 53.248-49.237 69.973zM837.547 260.437h67.328l-1.138-2.584c-49.948-102.354-138.746-182.273-250.254-221.502l-3.181-5.439c27.492 43.843 52.446 89.441 78.019 144.532l0.51 0.039c50.196 4.711 91.971 38.389 108.716 85.039zM651.691 192.768c-25.685-54.016-59.307-111.787-101.291-175.531v243.2h45.653l0.283-0.894c10.118-27.94 29.654-51.369 55.354-66.775zM346.965 260.437h126.635v-242.347c-57.856 91.136-99.669 170.069-126.635 242.347zM265.472 260.437c23.637-70.656 59.648-144.469 107.264-224.853-112.521 38.906-202.187 119.218-252.472 222.269l-1.138 2.584h146.347zM651.435 860.331c112.439-38.925 202.038-119.197 252.302-222.185l1.138-2.583h-146.261c-23.552 70.656-59.563 144.469-107.179 224.853zM677.205 635.563h-126.805v242.517c57.941-91.136 99.755-170.24 126.805-242.517zM512-64c282.77 0 512 229.23 512 512s-229.23 512-512 512v0c-282.77 0-512-229.23-512-512s229.23-512 512-512v0zM358.4 593.067c0-28.277-22.923-51.2-51.2-51.2s-51.2 22.923-51.2 51.2v0c0 28.277 22.923 51.2 51.2 51.2s51.2-22.923 51.2-51.2v0zM768 302.933c0-28.277-22.923-51.2-51.2-51.2s-51.2 22.923-51.2 51.2v0c0 28.277 22.923 51.2 51.2 51.2s51.2-22.923 51.2-51.2v0z" />
<glyph unicode="&#xe91a;" glyph-name="prod-management-monitoring" d="M128 797.867v0c-4.713 0-8.533-3.821-8.533-8.533v-460.8c0-4.713 3.821-8.533 8.533-8.533h768c4.713 0 8.533 3.821 8.533 8.533v460.8c0 4.713-3.821 8.533-8.533 8.533h-768zM42.667 789.333c0 47.128 38.205 85.333 85.333 85.333v0h768c47.128 0 85.333-38.205 85.333-85.333v0-460.8c0-47.128-38.205-85.333-85.333-85.333v0h-345.6v-142.507h232.107c21.208 0 38.4-17.192 38.4-38.4s-17.192-38.4-38.4-38.4h-541.013c-21.208 0-38.4 17.192-38.4 38.4s17.192 38.4 38.4 38.4h232.107v142.507h-345.6c-47.128 0-85.333 38.205-85.333 85.333v0 460.8zM781.653 611.413l-102.4 97.877-206.507-196.523-87.893 82.773-142.507-135.083 52.907-55.723 89.685 85.163 87.893-82.773 206.421 196.011 49.493-47.189 53.077 55.467z" />
<glyph unicode="&#xe91b;" glyph-name="prod-management-subAccount" d="M413.436 918.076c21.333 0 39.253-17.92 39.253-39.253v-228.693c0-21.333-17.92-39.253-39.253-39.253h-75.946v-54.803c72.636-17.192 126.292-82.164 126.292-160.237 0-49.371-21.456-93.502-55.6-123.626 27.416-17.178 51.703-40.345 71.875-67.389 12.411-16.639 23.434-34.926 32.87-54.55 9.209 18.991 19.86 36.77 31.789 53.028 20.141 27.45 44.482 51.184 72.121 68.756-34.246 30.127-55.775 74.325-55.775 123.78 0 78.074 53.657 143.046 126.294 160.238v54.802h-75.948c-21.333 0-39.253 17.92-39.253 39.253v228.693c0 21.333 17.92 39.253 39.253 39.253h228.693c21.335 0 39.255-17.92 39.255-39.253v-228.693c0-21.333-17.92-39.253-39.255-39.253h-75.946v-54.803c72.636-17.192 126.294-82.164 126.294-160.237 0-49.542-21.606-93.809-55.957-123.939 27.209-17.146 51.324-40.195 71.377-67.075 44.177-59.225 70.767-139.329 70.767-226.266h-76.8c0 71.782-22.050 135.466-55.529 180.348-33.56 44.992-76.471 68.826-119.406 68.826-42.448 0-84.753-24.188-118.267-69.863-30.938-42.164-52.176-100.181-56.073-164.412 0.173-4.941 0.261-9.907 0.261-14.899l-0.859-0.631-38.397 0.631h-37.543l-0.849 0.631 0.503 14.882c-2.919 65.425-24.137 123.213-55.182 164.834-33.56 44.992-76.471 68.826-119.406 68.826-42.448 0-84.753-24.188-118.267-69.863-33.411-45.536-55.512-109.559-56.672-179.942l-76.79 1.263c1.4 84.924 27.94 164.688 71.542 224.113 20.021 27.286 44.192 50.9 71.626 68.441-34.454 30.134-56.134 74.468-56.134 124.096 0 78.074 53.657 143.046 126.294 160.238v54.802h-75.948c-21.333 0-39.253 17.92-39.253 39.253v228.693c0 21.333 17.92 39.253 39.253 39.253zM299.090 483.729c-48.64 0-87.893-39.253-87.893-87.893s39.253-87.893 87.893-87.893c48.64 0 87.893 39.253 87.893 87.893s-39.253 87.893-87.893 87.893zM725.756 483.729c-48.64 0-87.893-39.253-87.893-87.893s39.253-87.893 87.893-87.893c48.64 0 87.893 39.253 87.893 87.893s-39.253 87.893-87.893 87.893zM375.89 841.276h-153.6v-153.6h153.6v153.6zM802.556 841.276h-153.6v-153.6h153.6v153.6z" />
<glyph unicode="&#xe91c;" glyph-name="prod-management-cloudActivityTracer" d="M451.413 924.16c-0.127 0.001-0.277 0.001-0.428 0.001-44.536 0-80.64-36.104-80.64-80.64 0-0.15 0-0.301 0.001-0.451v0.023-50.091c-28.837 41.67-76.381 68.62-130.219 68.62-87.187 0-157.867-70.679-157.867-157.867 0-45.846 19.543-87.128 50.753-115.969l0.106-0.097c-23.552-15.957-44.373-36.693-61.781-60.331-40.789-55.467-65.707-129.877-67.072-209.237-0.004-0.203-0.006-0.443-0.006-0.683 0-21.208 17.192-38.4 38.4-38.4 0.002 0 0.004 0 0.006 0h134.144c-2.56-17.067-4.096-34.475-4.437-52.224-0.004-0.203-0.006-0.443-0.006-0.683 0-21.208 17.192-38.4 38.4-38.4 0.002 0 0.004 0 0.006 0h168.96v-49.493c0-5.12 6.827-3.413 6.827-3.413v0.853l102.4 85.333c3.413 3.413 0 11.093 0 11.093l-102.4 85.333c-4.267 2.56-6.827 1.707-6.827-3.413v-49.493h-127.403c6.624 47.811 24.448 90.514 50.733 126.67l-0.557-0.804c31.317 42.069 69.973 63.573 106.24 63.573 37.888 0 74.837-19.456 104.448-56.405 29.013-36.267 49.579-87.979 54.101-147.627-4.352-17.152-6.656-35.157-6.656-53.675v-0.853h-26.88l-92.245-76.8h133.376c32.427-85.333 116.907-145.92 215.296-145.92 126.293 0 229.547 99.84 229.547 223.573 0 107.691-78.165 197.291-181.76 218.709v428.117c0.001 0.127 0.001 0.277 0.001 0.428 0 44.536-36.104 80.64-80.64 80.64-0.15 0-0.301 0-0.451-0.001h-305.47zM761.173 418.133c-53.941-6.654-101.228-31.038-136.765-67.047l-0.025-0.025c-12.43 36.184-29.811 67.521-51.701 95.119l0.501-0.655c-16.214 20.338-35.048 37.68-56.196 51.833l-0.892 0.562c31.061 28.843 50.517 69.973 50.517 115.627 0 73.813-50.944 135.936-119.467 153.173v76.373c0 1.707 0.597 2.56 1.109 3.157 0.597 0.512 1.536 1.109 3.157 1.109h305.493c1.707 0 2.56-0.597 3.157-1.109 0.512-0.597 1.109-1.536 1.109-3.157v-424.96zM302.848 496.555c-23.552-15.957-44.373-36.693-61.952-60.245-17.664-23.723-32.512-50.859-43.776-80.469h-112.981c6.912 49.152 24.747 93.013 49.067 126.037 30.72 41.728 69.205 63.403 107.435 63.403h0.020c9.796-0.034 19.284-1.371 27.543-3.669l0.417-0.871c8.726-16.613 20.308-31.49 34.229-44.1zM313.088 739.072c-35.575-27.286-59.068-68.791-61.931-115.867l-0.021-0.442c-2.998-0.391-6.466-0.614-9.986-0.614-44.85 0-81.247 36.194-81.576 80.966v0.031c0 44.373 36.693 81.067 81.067 81.067 31.573 0 59.136-18.517 72.533-45.141zM790.187 343.040c84.48 0 152.747-65.707 152.747-146.773s-68.267-146.773-152.747-146.773-152.747 65.707-152.747 146.773 68.267 146.773 152.747 146.773zM408.747 694.613c44.373 0 81.067-36.693 81.067-81.067s-36.693-81.067-81.067-81.067-81.067 36.693-81.067 81.067 36.693 81.067 81.067 81.067zM864.427 206.421c1.024-3.669 1.707-7.168 1.707-11.008-0.080-3.952-0.698-7.729-1.784-11.303l0.077 0.295c-0.193-0.68-0.304-1.461-0.304-2.268 0-2.999 1.532-5.641 3.856-7.184l0.032-0.020 13.909-8.96c2.411-1.535 3.988-4.194 3.988-7.222 0-1.761-0.533-3.397-1.447-4.755l0.019 0.031-18.773-28.331c-1.543-2.366-4.177-3.909-7.172-3.909-1.71 0-3.302 0.503-4.638 1.369l0.033-0.020-14.507 9.387c-1.327 0.861-2.95 1.374-4.693 1.374-1.851 0-3.567-0.578-4.978-1.563l0.028 0.019c-2.615-1.866-5.604-3.681-8.725-5.273l-0.406-0.188c-3.316-1.503-5.605-4.738-5.717-8.519v-16.825c0-4.713-3.821-8.533-8.533-8.533v0h-34.133c-4.713 0-8.533 3.821-8.533 8.533v0 16.896c-0.112 3.796-2.401 7.031-5.657 8.509l-0.061 0.025c-3.533 1.754-6.522 3.541-9.361 5.529l0.231-0.153c-1.382 0.966-3.098 1.544-4.95 1.544-1.743 0-3.366-0.512-4.727-1.394l0.034 0.021-14.507-9.387c-1.288-0.822-2.859-1.31-4.544-1.31-2.978 0-5.6 1.526-7.127 3.839l-0.020 0.032-18.773 28.416c-0.886 1.324-1.413 2.952-1.413 4.703 0 2.986 1.533 5.613 3.856 7.138l0.032 0.020 13.909 8.96c2.356 1.564 3.888 4.205 3.888 7.204 0 0.807-0.111 1.588-0.318 2.329l0.015-0.061c-1.010 3.279-1.628 7.056-1.706 10.966l-0.001 0.042c0 3.84 0.683 7.339 1.707 11.008 0.193 0.68 0.304 1.461 0.304 2.268 0 2.999-1.532 5.641-3.856 7.184l-0.032 0.020-13.909 8.96c-2.411 1.535-3.988 4.194-3.988 7.222 0 1.761 0.533 3.397 1.447 4.755l-0.019-0.031 18.773 28.331c1.543 2.366 4.177 3.909 7.172 3.909 1.71 0 3.302-0.503 4.638-1.369l-0.033 0.020 14.507-9.387c2.901-1.877 6.741-1.792 9.643 0.171 2.615 1.866 5.604 3.681 8.725 5.273l0.406 0.188c3.292 1.49 5.571 4.686 5.717 8.43l0.001 0.018v16.896c0 4.713 3.821 8.533 8.533 8.533h34.133c4.713 0 8.533-3.821 8.533-8.533v0-16.896c0-3.669 2.389-6.827 5.717-8.533 3.533-1.754 6.522-3.541 9.361-5.529l-0.231 0.153c1.382-0.966 3.098-1.544 4.95-1.544 1.743 0 3.366 0.512 4.727 1.394l-0.034-0.021 14.507 9.387c1.302 0.846 2.894 1.349 4.604 1.349 2.994 0 5.629-1.542 7.152-3.876l0.020-0.033 18.773-28.416c0.87-1.315 1.388-2.93 1.388-4.665 0-3.011-1.559-5.657-3.914-7.176l-0.034-0.020-13.909-8.96c-2.356-1.564-3.888-4.205-3.888-7.204 0-0.807 0.111-1.588 0.318-2.329l-0.015 0.061zM758.613 195.413c0-17.92 14.507-31.573 31.573-31.573 17.92 0 31.573 13.653 31.573 31.573s-13.653 31.573-31.573 31.573-31.573-13.653-31.573-31.573z" />
<glyph unicode="&#xe91d;" glyph-name="prod-networking-cdn" d="M704.683 636.501l48.64-8.192c50.688-8.619 88.747-53.077 88.747-104.448 0-58.795-47.957-106.837-106.837-106.837h-414.549c-76.459 0-138.752 62.293-138.752 138.752 0 68.437 49.067 125.611 115.285 136.533l35.584 5.973 18.176 31.147c33.451 57.429 94.293 92.587 161.024 92.587h0.029c85.557-0.25 157.594-57.968 179.854-137.899l12.8-47.531zM735.232 340.224c101.381 0.097 183.54 82.256 183.637 183.628v0.009c0 89.6-65.792 165.376-152.747 180.139-31.335 112.991-133.169 194.593-254.097 194.816h-0.026c-0.131 0-0.285 0-0.44 0-96.402 0-180.666-51.969-226.305-129.419l-0.669-1.227c-102.461-17.553-179.457-105.714-179.457-211.859 0-0.218 0-0.437 0.001-0.655v0.034c0.194-118.951 96.594-215.321 215.538-215.467h152.931v-111.445c-39.958-12.899-70.813-43.754-83.458-82.804l-0.254-0.908h-261.888c-21.208 0-38.4-17.192-38.4-38.4s17.192-38.4 38.4-38.4h261.888c16.832-52.381 65.123-89.625 122.112-89.625s105.28 37.243 121.86 88.719l0.252 0.906h261.888c21.208 0 38.4 17.192 38.4 38.4s-17.192 38.4-38.4 38.4h-261.888c-12.899 39.958-43.754 70.813-82.804 83.458l-0.908 0.254v111.445h184.832zM563.2 106.667c0-28.277-22.923-51.2-51.2-51.2s-51.2 22.923-51.2 51.2v0c0 28.277 22.923 51.2 51.2 51.2s51.2-22.923 51.2-51.2v0z" />
<glyph unicode="&#xe91e;" glyph-name="prod-networking-globalCdn" d="M726.443 478.293c-27.307-44.373-68.011-79.531-116.48-100.011 13.483 34.645 24.235 67.669 32.256 100.011h84.224zM562.773 478.293c-10.24-36.864-24.917-76.117-44.117-119.723-1.88-0.049-4.094-0.077-6.315-0.077s-4.435 0.028-6.642 0.083l0.327-0.006c-14.548 32.083-29.268 71.816-41.451 112.644l-1.813 7.078h100.011zM383.317 478.293c8.021-32.256 18.773-65.536 32.171-100.693-49.622 21.028-89.986 55.84-117.311 99.628l-0.62 1.065h85.76zM446.549 555.093l0.268-2.273c-2.861 19.885-4.341 40.216-4.341 60.892 0 14.878 0.767 29.576 2.11 42.245h134.229l-0.199 2.032c2.024-16.847 3.066-33.997 3.066-51.39 0-18.154-1.135-36.042-3.123-51.506h-132.096zM367.531 655.957c-1.152-12.717-1.809-27.508-1.809-42.452 0-20.584 1.246-40.878 3.668-60.809l-0.237 2.397h-102.912c-3.799 16.414-5.976 35.262-5.976 54.619 0 16.352 1.554 32.34 4.522 47.827l-0.252-1.582h103.083zM458.752 732.757l1.494 6.182c12.521 44.282 28.433 87.141 45.183 122.842l-0.326-0.007c2.207 0.057 4.421 0.085 6.641 0.085s4.434-0.029 6.315-0.079c20.224-47.531 35.413-89.856 45.824-129.024h-105.045zM414.123 842.155c-12.369-29.94-24.166-66.443-33.281-103.994l-1.108-5.403h-87.637c27.685 48.887 69.746 86.874 120.389 108.767l1.637 0.63zM757.76 555.093h-102.059c1.705 15.506 2.677 33.487 2.677 51.696 0 17.315-0.879 34.425-2.596 51.287l0.175-2.119h103.595c2.66-13.776 4.181-29.618 4.181-45.816 0-19.51-2.208-38.505-6.387-56.748l0.328 1.701zM731.989 732.757h-88.917c-10.584 43.6-22.373 80.265-36.44 115.78l2.050-5.871c52.823-22.439 95.328-60.649 122.567-108.657l0.654-1.253zM550.4 283.904c164.166 19.879 290.133 158.37 290.133 326.281 0 181.444-147.089 328.533-328.533 328.533s-328.533-147.089-328.533-328.533c0-167.912 125.968-306.402 288.557-326.126l1.576-0.156v-76.459c-39.958-12.899-70.813-43.754-83.458-82.804l-0.254-0.908h-261.888c-21.208 0-38.4-17.192-38.4-38.4s17.192-38.4 38.4-38.4h261.888c16.832-52.381 65.123-89.625 122.112-89.625s105.28 37.243 121.86 88.719l0.252 0.906h261.888c21.208 0 38.4 17.192 38.4 38.4s-17.192 38.4-38.4 38.4h-261.888c-12.899 39.958-43.754 70.813-82.804 83.458l-0.908 0.254v76.459zM512 34.133v0c-28.277 0-51.2 22.923-51.2 51.2s22.923 51.2 51.2 51.2v0c28.277 0 51.2-22.923 51.2-51.2s-22.923-51.2-51.2-51.2z" />
<glyph unicode="&#xe91f;" glyph-name="prod-networking-globalInternetService" d="M512 960c282.77 0 512-229.23 512-512s-229.23-512-512-512c-282.77 0-512 229.23-512 512s229.23 512 512 512zM680.36 260.475h-129.96v-243.238c60.011 91.098 102.973 170.067 129.96 243.238zM473.6 260.475h-126.633c27.004-72.284 68.79-151.247 126.633-242.307v242.307zM265.512 260.475h-146.349c50.359-105.306 141.815-187.199 253.604-224.925-47.662 80.39-83.628 154.198-107.255 224.925zM904.841 260.475h-143.185c-23.299-71.366-59.699-144.769-108.139-224.148 110.751 38.067 201.301 119.56 251.324 224.148zM932.992 558.725h-153.344c8.36-39.8 12.528-79.002 12.378-118.278-0.131-34.551-3.6-68.789-10.285-103.172h151.251c9.267 35.354 14.208 72.463 14.208 110.725s-4.941 75.372-14.208 110.725zM700.937 558.725h-150.537v-221.45h152.887c7.876 35.111 11.811 69.331 11.941 103.463 0.146 38.422-4.528 77.368-14.291 117.987zM473.6 558.725h-152.719c-7.877-35.113-11.812-69.332-11.942-103.466-0.146-38.421 4.528-77.367 14.291-117.984h150.369v221.45zM242.426 558.725h-151.415c-9.273-35.354-14.211-72.463-14.211-110.725s4.938-75.372 14.211-110.725h153.509c-8.36 39.799-12.528 78.999-12.378 118.275 0.131 34.551 3.6 68.79 10.285 103.175zM651.441 860.381c47.642-80.364 83.594-154.15 107.214-224.856h146.186c-50.33 105.242-141.705 187.102-253.4 224.856zM550.4 878.092v-242.566h126.799c-27.029 72.352-68.87 151.398-126.799 242.566zM370.697 859.747c-110.847-38.032-201.486-119.567-251.535-224.222h143.351c23.307 71.387 59.721 144.814 108.184 224.222zM473.6 878.507c-59.924-90.99-102.83-169.88-129.792-242.982h129.792z" />
<glyph unicode="&#xe920;" glyph-name="prod-networking-loadBalancer" d="M298.667 917.333c47.128 0 85.333-38.205 85.333-85.333v-42.667h256v42.667c0 47.128 38.205 85.333 85.333 85.333h170.667c47.13 0 85.333-38.205 85.333-85.333v-170.667c0-47.128-38.204-85.333-85.333-85.333h-42.667v-256h42.667c47.13 0 85.333-38.205 85.333-85.333v-170.667c0-47.13-38.204-85.333-85.333-85.333h-170.667c-47.128 0-85.333 38.204-85.333 85.333v42.667h-256v-42.667c0-47.13-38.205-85.333-85.333-85.333h-170.667c-47.128 0-85.333 38.204-85.333 85.333v170.667c0 47.128 38.205 85.333 85.333 85.333h42.667v256h-42.667c-47.128 0-85.333 38.205-85.333 85.333v170.667c0 47.128 38.205 85.333 85.333 85.333zM298.667 243.2h-170.667c-4.713 0-8.533-3.82-8.533-8.533v-170.667c0-4.71 3.82-8.533 8.533-8.533h170.667c4.713 0 8.533 3.823 8.533 8.533v170.667c0 4.713-3.82 8.533-8.533 8.533zM896 243.2h-170.667c-4.713 0-8.533-3.82-8.533-8.533v-170.667c0-4.71 3.82-8.533 8.533-8.533h170.667c4.71 0 8.533 3.823 8.533 8.533v170.667c0 4.713-3.823 8.533-8.533 8.533zM640 712.533h-256v-51.2c0-47.128-38.205-85.333-85.333-85.333h-51.2v-256h51.2c47.128 0 85.333-38.205 85.333-85.333v-51.2h256v51.2c0 47.128 38.205 85.333 85.333 85.333h51.2v256h-51.2c-47.128 0-85.333 38.205-85.333 85.333v51.2zM298.667 840.533h-170.667c-4.713 0-8.533-3.82-8.533-8.533v-170.667c0-4.713 3.82-8.533 8.533-8.533h170.667c4.713 0 8.533 3.82 8.533 8.533v170.667c0 4.713-3.82 8.533-8.533 8.533zM896 840.533h-170.667c-4.713 0-8.533-3.82-8.533-8.533v-170.667c0-4.713 3.82-8.533 8.533-8.533h170.667c4.71 0 8.533 3.82 8.533 8.533v170.667c0 4.713-3.823 8.533-8.533 8.533z" />
<glyph unicode="&#xe921;" glyph-name="prod-security-acg" d="M915.778 906.086c15.002 14.996 39.313 14.996 54.306 0 15.002-14.996 15.002-39.309 0-54.306l-84.053-84.055c31.838-13.203 52.642-44.294 52.642-78.822v-197.983c0-237-179.964-458.136-424.98-512.254-103.662 22.972-196.513 76.058-269.047 147.671l-89.492-89.491 43.61-43.614c5.376-5.376 1.568-14.566-6.034-14.566h-141.532c-4.713 0-8.533 3.823-8.533 8.533v141.531c0 7.602 9.192 11.41 14.567 6.034l43.615-43.612 92.85 92.849c-67.993 88.49-108.361 195.966-108.361 306.919v197.813c0 34.93 21.288 66.334 53.735 79.268l342.898 136.686c20.363 8.117 43.070 8.086 63.411-0.087l263.174-105.741zM494.933 376.626l-196.002-196.002c58.284-57.493 132-101.375 214.789-122.973 74.105 19.285 140.524 56.404 194.982 105.206l-213.769 213.769zM826.992 708.686l-277.753-277.754 212.396-212.396c63.037 77.965 100.238 174.205 100.238 272.386v197.983c0 3.485-2.125 6.619-5.359 7.918l-29.522 11.864zM172.793 698.767l-5.283-2.106c-3.244-1.293-5.373-4.433-5.373-7.927v-197.813c0-89.599 31.927-177.869 86.42-252.060l192.071 192.071-267.834 267.835zM668.72 772.278l-230.414-230.414 56.626-56.626 254.578 254.578-80.791 32.462zM513.579 833.953l-3.172-0.607-259.959-103.625 133.552-133.552 207.239 207.238-74.491 29.93c-2.033 0.817-4.304 0.82-6.341 0.009z" />
<glyph unicode="&#xe922;" glyph-name="prod-security-appSafer" d="M467.238 205l0.3-2.052c0.205-1.37 0.423-2.738 0.653-4.104 0.412-2.465 0.87-4.934 1.368-7.396 0.516-2.543 1.071-5.069 1.667-7.585 0.767-3.245 1.6-6.458 2.502-9.657l1.030-3.542h-333.957v-93.864c0-4.71 3.82-8.533 8.533-8.533h383.669l1.2-1.339c3.582-3.975 7.283-7.871 11.097-11.682l-12.297 13.021c5.026-5.644 10.29-11.13 15.779-16.444 4.386-4.249 8.947-8.412 13.645-12.456 0.644-0.554 1.267-1.086 1.893-1.616 4.219-3.575 8.572-7.073 13.029-10.469 1.204-0.918 2.44-1.846 3.684-2.766 5.138-3.798 10.375-7.439 15.737-10.938 1.351-0.884 2.762-1.789 4.18-2.685 4.314-2.721 8.667-5.331 13.094-7.848 1.291-0.736 2.61-1.475 3.935-2.204 5.019-2.762 10.105-5.396 15.276-7.906l3.061-1.468h-486.982c-47.128 0-85.333 38.204-85.333 85.333v768c0 47.128 38.205 85.333 85.333 85.333h512c47.128 0 85.333-38.205 85.333-85.333v-396.113l157.269-57.446c33.664-12.296 56.064-44.315 56.064-80.154v-75.124c0-124.961-104.38-241.561-246.49-270.096-34.204 6.892-66.378 18.921-95.509 34.963l15.265-7.903c-6.553 3.18-12.971 6.56-19.243 10.127l3.978-2.225c-5.795 3.191-11.469 6.542-17.015 10.042l13.037-7.817c-5.9 3.356-11.671 6.877-17.303 10.555l4.267-2.737c-6.841 4.317-13.486 8.863-19.92 13.62l15.654-10.883c-6.663 4.35-13.133 8.919-19.395 13.69l3.742-2.808c-5.762 4.26-11.356 8.69-16.77 13.278l13.029-10.47c-5.098 3.884-10.059 7.903-14.874 12.047l1.846-1.576c-5.36 4.542-10.545 9.239-15.543 14.079-1.161 1.125-2.313 2.257-3.454 3.397l-11.097 11.682c-30.855 34.241-52.89 74.368-62.974 116.918l2.497-9.622c-1.603 5.692-2.993 11.433-4.162 17.215l1.665-7.593c-1.178 4.972-2.194 9.978-3.041 15.011l1.376-7.418c-0.909 4.495-1.684 9.015-2.321 13.555l-1.552 14.391-0.625 16.577c-0.003-10.393 0.737-20.73 2.173-30.962zM570.038 327.119l-22.549-8.172c-3.377-1.224-5.626-4.431-5.626-8.023v-74.962c0-77.438 66.894-163.754 171.668-191.299 35.848 9.412 67.106 25.728 92.692 46.268l-236.184 236.188zM405.332 153.599c18.851 0 34.133-15.282 34.133-34.133s-15.282-34.133-34.133-34.133c-18.852 0-34.133 15.283-34.133 34.133s15.281 34.133 34.133 34.133zM713.405 378.526l-2.919-0.511-60.727-22.007 207.414-207.416c16.887 27.887 26.027 58.158 26.027 87.37v75.124c0 3.584-2.244 6.786-5.606 8.015l-161.272 58.906c-1.883 0.689-3.949 0.691-5.835 0.008zM661.333 853.333h-512c-4.713 0-8.533-3.82-8.533-8.533v-42.667h529.067v42.667c0 4.713-3.82 8.533-8.533 8.533zM465.062 310.925c0 35.919 22.491 67.991 56.26 80.229l148.544 53.945v280.235h-529.067v-477.869h324.265z" />
<glyph unicode="&#xe923;" glyph-name="prod-security-basicSecurity" d="M167.509 696.661l342.869 136.704c0.947 0.394 2.047 0.623 3.2 0.623s2.253-0.229 3.257-0.643l-0.057 0.021 339.712-136.533c3.177-1.29 5.376-4.352 5.376-7.928 0-0.003 0-0.006 0-0.009v0-197.973c0-194.048-145.237-380.501-348.16-433.237-203.093 52.907-351.573 240.043-351.573 433.237v197.803c0 0.002 0 0.005 0 0.008 0 3.576 2.199 6.638 5.319 7.907l0.057 0.021zM545.365 904.619c-9.386 3.864-20.282 6.107-31.701 6.107s-22.316-2.243-32.271-6.313l0.57 0.206-342.869-136.619c-31.766-12.9-53.759-43.519-53.76-79.275v0-197.803c0-236.971 184.149-458.155 428.373-512.256 244.907 54.101 424.96 275.285 424.96 512.256v197.973c0 0.004 0 0.009 0 0.014 0 35.66-21.874 66.211-52.936 78.968l-0.568 0.207-339.883 136.533zM315.733 490.923v93.696c0 0.002 0 0.005 0 0.008 0 3.576 2.199 6.638 5.319 7.907l0.057 0.021 189.099 75.349c0.935 0.383 2.020 0.606 3.157 0.606s2.222-0.222 3.214-0.626l-0.057 0.021 186.368-74.923c3.177-1.29 5.376-4.352 5.376-7.928 0-0.003 0-0.006 0-0.009v0-94.123c0-108.715-76.971-223.915-194.56-271.787-119.467 48.555-197.973 165.12-197.973 271.787zM292.693 663.893c-31.767-12.9-53.76-43.52-53.76-79.277 0-0.029 0-0.058 0-0.087v0.005-93.611c0-149.76 113.152-302.080 274.773-353.365 160.512 50.944 271.36 202.155 271.36 353.365v94.123c0 0.004 0 0.009 0 0.014 0 35.66-21.874 66.211-52.936 78.968l-0.568 0.207-186.368 74.923c-9.427 3.901-20.374 6.167-31.85 6.167-11.396 0-22.27-2.234-32.208-6.287l0.57 0.206-189.013-75.349z" />
<glyph unicode="&#xe924;" glyph-name="prod-security-securityMonitoring" d="M722.723 450.22c18.854 6.833 39.514 6.806 58.351-0.074l161.269-58.906c16.832-6.148 30.846-17.227 40.652-31.248l5.169-8.376c5.377-9.958 8.802-21.033 9.875-32.653l0.359-7.876v-75.124c0-124.961-104.38-241.561-246.486-270.096-113.426 22.855-204.534 102.2-236.314 197.087l0.281-0.82c-4.381 12.93-7.66 26.151-9.744 39.559l0.747-4.538c-1.016 5.768-1.81 11.574-2.377 17.408l1.63-12.869c-0.876 5.634-1.54 11.302-1.987 16.994l-0.678 17.276v2.97h-0.088l0.083 71.991c0 32.327 18.218 61.538 46.479 75.978l9.781 4.25zM608.441 327.119l-22.549-8.172c-3.377-1.224-5.626-4.431-5.626-8.023v-74.962c0-77.438 66.894-163.754 171.668-191.299 35.848 9.412 67.106 25.728 92.692 46.268l-236.184 236.188zM751.808 378.526l-2.919-0.511-60.727-22.007 207.418-207.416c16.879 27.887 26.018 58.158 26.018 87.37v75.124c0 3.584-2.236 6.786-5.606 8.015l-161.268 58.906c-1.883 0.689-3.949 0.691-5.835 0.008zM913.065 930.133c47.13 0 85.333-38.205 85.333-85.333v-532.974c-0.021 2.398-0.142 4.779-0.359 7.137l0.359-7.876c0 17.919-5.598 34.884-15.404 48.905-9.996 14.174-23.931 25.143-40.643 31.248l-20.753 7.578v445.981c0 4.713-3.814 8.533-8.533 8.533h-802.131c-4.713 0-8.533-3.82-8.533-8.533v-597.333c0-4.713 3.82-8.533 8.533-8.533h392.448l0.083-2.97c0-5.785 0.229-11.552 0.68-17.292 0.111-1.351 0.231-2.718 0.363-4.082 0.416-4.341 0.96-8.64 1.626-12.919 0.236-1.485 0.486-2.991 0.75-4.495 2.035-11.591 4.961-23.014 8.714-34.22l0.281-0.82h-404.945c-47.128 0-85.333 38.205-85.333 85.333v597.333c0 47.128 38.205 85.333 85.333 85.333zM670.942 747.79l128.010-123.707-53.369-55.227-75.084 72.56-206.164-195.942-87.92 82.798-89.722-85.103-52.853 55.72 142.385 135.057 87.867-82.749 206.849 196.592z" />
<glyph unicode="&#xe925;" glyph-name="prod-security-siteSafer" d="M722.724 450.22c18.854 6.833 39.514 6.806 58.351-0.074l161.269-58.906c16.832-6.148 30.846-17.227 40.652-31.248l5.169-8.377c6.468-11.979 10.112-25.574 10.235-39.79l-0.51 7.151 0.51-7.889v-75.124c0-124.961-104.38-241.561-246.486-270.096-113.426 22.855-204.534 102.2-236.314 197.087-4.242 12.684-7.425 25.621-9.463 38.738l0.747-4.538c-1.016 5.768-1.81 11.574-2.377 17.408l-0.361 4.108-0.675 17.292v2.971h-0.088l0.083 71.991c0 32.327 18.218 61.538 46.479 75.978l9.781 4.25zM608.441 327.119l-22.549-8.172c-3.377-1.224-5.626-4.431-5.626-8.023v-74.962c0-77.438 66.894-163.754 171.668-191.299 35.848 9.412 67.106 25.728 92.692 46.268l-236.184 236.188zM751.808 378.526l-2.919-0.511-60.727-22.007 207.418-207.416c16.879 27.887 26.018 58.158 26.018 87.37v75.124c0 3.584-2.236 6.786-5.606 8.015l-161.268 58.906c-1.883 0.689-3.949 0.691-5.835 0.008zM913.066 930.133c47.13 0 85.333-38.205 85.333-85.333v-532.975l-0.51 7.151-0.151 2.732c-1.747 13.966-6.898 27.067-14.743 38.284-9.996 14.173-23.931 25.142-40.643 31.247l-20.753 7.578v236.913h-819.197v-388.264c0-4.713 3.82-8.533 8.533-8.533h392.448l0.083-2.97c0-5.785 0.229-11.552 0.68-17.292l-0.675 17.292c0-7.157 0.35-14.287 1.038-21.374 0.416-4.34 0.96-8.639 1.626-12.919 0.236-1.485 0.485-2.992 0.75-4.496 2.036-11.591 4.962-23.014 8.715-34.219l0.281-0.82h-404.945c-47.128 0-85.333 38.205-85.333 85.333v597.333c0 47.128 38.205 85.333 85.333 85.333h802.131zM913.066 853.333h-802.131c-4.713 0-8.533-3.82-8.533-8.533v-132.269h819.197v132.269c0 4.713-3.814 8.533-8.533 8.533zM170.67 819.199c18.851 0 34.133-15.282 34.133-34.133s-15.282-34.133-34.133-34.133c-18.852 0-34.133 15.282-34.133 34.133s15.281 34.133 34.133 34.133zM273.076 819.199c18.851 0 34.133-15.282 34.133-34.133s-15.282-34.133-34.133-34.133c-18.852 0-34.133 15.282-34.133 34.133s15.281 34.133 34.133 34.133zM375.482 819.199c18.852 0 34.133-15.282 34.133-34.133s-15.281-34.133-34.133-34.133c-18.851 0-34.133 15.282-34.133 34.133s15.282 34.133 34.133 34.133z" />
<glyph unicode="&#xe926;" glyph-name="prod-security-sslVpn" d="M167.509 696.661l-0.057-0.021c-3.12-1.269-5.319-4.332-5.319-7.907 0-0.003 0-0.006 0-0.008v-197.803c0-190.805 144.811-375.723 343.979-431.189-16.981 28.075-28.757 59.819-33.877 93.611-139.179 62.293-233.301 201.045-233.301 337.579v93.606c0 0.029 0 0.058 0 0.087 0 35.757 21.993 66.377 53.76 79.277l188.442 75.143c9.927 4.043 20.786 6.27 32.165 6.27 11.46 0 22.393-2.259 31.808-6.15l187.021-75.13c31.062-12.757 52.936-43.308 52.936-78.968 0-0.005 0-0.010 0-0.014v-94.123c0-16.384-1.28-32.853-3.84-49.067l1.708-0.328c25.869-5.913 50.235-15.77 71.252-28.258 5.12 25.6 7.68 51.541 7.68 77.653v197.973c0 0.003 0 0.006 0 0.009 0 3.576-2.199 6.638-5.376 7.928l-339.655 136.512c-1.004 0.415-2.103 0.643-3.257 0.643s-2.253-0.229-3.2-0.623l-342.869-136.704zM564.736-7.339c-12.946-4.521-30.033-9.339-47.443-13.307l-3.587-0.688c-244.224 54.101-428.373 275.285-428.373 512.256v197.803c0.001 35.756 21.994 66.375 53.189 79.069l0.571 0.205 342.869 136.704c9.356 3.837 20.215 6.064 31.595 6.064 11.46 0 22.393-2.259 32.377-6.356l-0.569 0.207 339.797-136.533c31.63-12.964 53.504-43.515 53.504-79.175 0-0.005 0-0.010 0-0.015v0.001-197.973c0-45.141-6.485-89.6-18.773-132.523 38.186-44.451 61.435-102.698 61.435-166.374 0-141.385-114.615-256-256-256-61.035 0-117.080 21.359-161.071 57.011l0.478-0.375zM473.6 238.763c21.575 112.824 114.816 198.486 229.706 208.318l0.95 0.066c2.56 14.507 4.011 29.269 4.011 43.776v94.123c0 0.002 0 0.005 0 0.008 0 3.576-2.199 6.638-5.319 7.907l-0.057 0.021-186.368 74.923c-0.935 0.383-2.020 0.606-3.157 0.606s-2.222-0.222-3.214-0.626l0.057 0.021-189.099-75.349c-3.177-1.29-5.377-4.352-5.377-7.928 0-0.033 0-0.066 0.001-0.098v0.005-93.696c0-94.208 61.184-196.267 157.867-252.16zM904.533 192v0c0 98.969-80.231 179.2-179.2 179.2s-179.2-80.231-179.2-179.2v0c0-98.969 80.231-179.2 179.2-179.2s179.2 80.231 179.2 179.2zM653.653 256.427c0 40.704 36.693 66.987 72.533 66.987s72.533-26.283 72.533-66.987v-34.645h25.6v-138.24h-196.267v138.325h25.6v34.645zM715.605 260.096c-2.048-1.792-2.219-3.243-2.219-3.669v-32.427h25.6v32.427c0 0.427-0.171 1.877-2.304 3.669-2.745 2.234-6.286 3.588-10.142 3.588-0.125 0-0.249-0.001-0.373-0.004h0.018c-0.13 0.004-0.283 0.006-0.437 0.006-3.857 0-7.399-1.354-10.174-3.613l0.029 0.023z" />
<glyph unicode="&#xe927;" glyph-name="prod-security-webSecurityChecker" d="M510.379 833.365l-342.869-136.704c-3.177-1.29-5.376-4.352-5.376-7.928 0-0.003 0-0.006 0-0.009v0-197.803c0-193.195 148.48-380.245 351.573-433.237 202.923 52.736 348.16 239.189 348.16 433.237v197.973c0 0.002 0 0.005 0 0.008 0 3.576-2.199 6.638-5.319 7.907l-0.057 0.021-339.712 136.533c-0.947 0.394-2.047 0.623-3.2 0.623s-2.253-0.229-3.257-0.643l0.057 0.021zM481.963 904.704c9.356 3.837 20.215 6.064 31.595 6.064 11.46 0 22.393-2.259 32.377-6.356l-0.569 0.207 339.797-136.533c31.63-12.964 53.504-43.515 53.504-79.175 0-0.005 0-0.010 0-0.015v0.001-197.973c0-236.971-179.968-458.155-424.96-512.256-244.224 54.101-428.373 275.285-428.373 512.256v197.803c0.001 35.756 21.994 66.375 53.189 79.069l0.571 0.205 342.869 136.704zM443.051 211.456c-3.584-9.131 8.533-16.043 14.677-8.363l201.899 258.133c1.146 1.44 1.838 3.284 1.838 5.291 0 4.699-3.798 8.511-8.492 8.533h-119.042c-4.707 0.008-8.519 3.825-8.519 8.533 0 1.82 0.57 3.506 1.54 4.891l-0.018-0.027 116.651 168.107c0.917 1.34 1.464 2.996 1.464 4.779 0 4.687-3.779 8.492-8.457 8.533h-149.337c-0.002 0-0.005 0-0.008 0-3.576 0-6.638-2.199-7.907-5.319l-0.021-0.057-103.595-264.704c-0.362-0.911-0.572-1.967-0.572-3.072 0-4.704 3.806-8.519 8.507-8.533h115.201c0.018 0 0.039 0 0.060 0 4.713 0 8.533-3.821 8.533-8.533 0-1.105-0.21-2.161-0.592-3.13l0.020 0.058-63.829-165.12z" />
<glyph unicode="&#xe928;" glyph-name="prod-storage-backup" d="M473.6 576.256v298.411h76.8v-298.411h50.347c4.682-0.040 8.462-3.845 8.462-8.533 0-2.084-0.747-3.993-1.988-5.475l0.011 0.013-88.747-106.411c-1.576-1.863-3.915-3.038-6.528-3.038s-4.952 1.175-6.518 3.025l-0.010 0.013-88.747 106.496c-1.23 1.468-1.977 3.378-1.977 5.462 0 4.713 3.821 8.533 8.533 8.533 0.035 0 0.070 0 0.105-0.001h50.256zM242.859 827.989c-44.772 0-81.067-36.295-81.067-81.067v0-382.891h-33.792c-47.128 0-85.333-38.205-85.333-85.333v0-182.357c0-47.128 38.205-85.333 85.333-85.333v0h768c47.128 0 85.333 38.205 85.333 85.333v0 182.357c0 47.128-38.205 85.333-85.333 85.333v0h-33.792v382.805c0 44.772-36.295 81.067-81.067 81.067v0h-138.667v-76.8h138.667c2.356 0 4.267-1.91 4.267-4.267v0-382.805h-546.816v382.805c0 2.356 1.91 4.267 4.267 4.267v0h138.667v76.8h-138.667zM128 287.147h768c4.713 0 8.533-3.821 8.533-8.533v0-182.357c0-4.713-3.821-8.533-8.533-8.533v0h-768c-4.713 0-8.533 3.821-8.533 8.533v0 182.443c0 4.713 3.821 8.533 8.533 8.533v0zM192 149.077h640v76.8h-640v-76.8z" />
<glyph unicode="&#xe929;" glyph-name="prod-storage-blockStorage" d="M136.875 823.125h102.4v-102.4h-102.4v102.4zM124.075 899.925c-35.346 0-64-28.654-64-64v0-128c0-35.328 28.672-64 64-64h128c35.346 0 64 28.654 64 64v0 128c0 35.346-28.654 64-64 64v0h-128zM136.875 499.2h102.4v-102.4h-102.4v102.4zM124.075 576c-35.346 0-64-28.654-64-64v0-128c0-35.328 28.672-64 64-64h128c35.346 0 64 28.654 64 64v0 128c0 35.346-28.654 64-64 64v0h-128zM136.875 175.275h102.4v-102.4h-102.4v102.4zM124.075 252.075c-35.346 0-64-28.654-64-64v0-128c0-35.328 28.672-64 64-64h128c35.346 0 64 28.654 64 64v0 128c0 35.346-28.654 64-64 64v0h-128zM460.8 823.125h102.4v-102.4h-102.4v102.4zM448 899.925c-35.346 0-64-28.654-64-64v0-128c0-35.328 28.672-64 64-64h128c35.346 0 64 28.654 64 64v0 128c0 35.346-28.654 64-64 64v0h-128zM460.8 499.2h102.4v-102.4h-102.4v102.4zM448 576c-35.346 0-64-28.654-64-64v0-128c0-35.328 28.672-64 64-64h128c35.346 0 64 28.654 64 64v0 128c0 35.346-28.654 64-64 64v0h-128zM460.8 175.275h102.4v-102.4h-102.4v102.4zM448 252.075c-35.346 0-64-28.654-64-64v0-128c0-35.328 28.672-64 64-64h128c35.346 0 64 28.654 64 64v0 128c0 35.346-28.654 64-64 64v0h-128zM784.725 823.125h102.4v-102.4h-102.4v102.4zM771.925 899.925c-35.346 0-64-28.654-64-64v0-128c0-35.328 28.672-64 64-64h128c35.346 0 64 28.654 64 64v0 128c0 35.346-28.654 64-64 64v0h-128zM784.725 499.2h102.4v-102.4h-102.4v102.4zM771.925 576c-35.346 0-64-28.654-64-64v0-128c0-35.328 28.672-64 64-64h128c35.346 0 64 28.654 64 64v0 128c0 35.346-28.654 64-64 64v0h-128zM784.725 175.275h102.4v-102.4h-102.4v102.4zM771.925 252.075c-35.346 0-64-28.654-64-64v0-128c0-35.328 28.672-64 64-64h128c35.346 0 64 28.654 64 64v0 128c0 35.346-28.654 64-64 64v0h-128z" />
<glyph unicode="&#xe92a;" glyph-name="prod-storage-fileStorage" d="M511.999 896c255.394 0 447.996-82.895 447.996-192.857v-2.050c0.043-1.015 0.026-2.026 0-3.033v-163.826c0.043-1.015 0.026-2.026 0-3.033v-163.828c0.043-1.015 0.026-2.026 0-3.033v-171.527c0-109.921-192.602-192.814-447.996-192.814s-448 82.893-448 192.814v510.329c0 109.962 192.606 192.857 448 192.857zM883.194 241.158c-19.226-13.495-40.909-25.12-63.626-34.898-79.315-34.136-187.22-53.589-307.569-53.589s-228.255 19.453-307.569 53.589c-22.717 9.777-44.396 21.402-63.631 34.898v-48.344c0-5.593 7.375-35.057 81.789-67.083 67.882-29.219 168.888-48.931 289.411-48.931s221.53 19.712 289.411 48.931c74.412 32.026 81.784 61.49 81.784 67.083zM883.194 408.019c-19.226-13.495-40.909-25.12-63.626-34.898-79.315-34.136-187.22-53.589-307.569-53.589s-228.255 19.453-307.569 53.589c-22.717 9.777-44.396 21.402-63.631 34.898v-42.368c1.041-25.392 25.173-59.228 93.991-88.847 67.121-28.889 164.034-47.334 277.209-47.334s210.086 18.445 277.209 47.334c68.822 29.62 92.954 63.458 93.987 88.85v42.365zM883.194 574.878c-19.226-13.495-40.909-25.12-63.626-34.898-79.315-34.136-187.22-53.588-307.569-53.588s-228.255 19.453-307.569 53.588c-22.717 9.777-44.396 21.403-63.631 34.898v-42.366c1.041-25.392 25.173-59.228 93.991-88.847 67.121-28.889 164.034-47.334 277.209-47.334s210.086 18.445 277.209 47.334c68.822 29.62 92.954 63.458 93.987 88.85zM511.999 819.2c-120.524 0-221.528-19.715-289.408-48.934-74.4-32.026-81.792-61.497-81.792-67.122v-3.773c1.041-25.392 25.173-59.228 93.991-88.847 67.121-28.889 164.034-47.333 277.209-47.333s210.086 18.444 277.209 47.333c68.822 29.62 92.954 63.458 93.987 88.851v3.768c0 5.625-7.39 35.096-81.788 67.122-67.88 29.219-168.885 48.934-289.408 48.934z" />
<glyph unicode="&#xe92b;" glyph-name="prod-storage-nas" d="M853.333 618.667c47.13 0 85.333-38.205 85.333-85.333v-64c0-47.128-38.204-85.333-85.333-85.333h-302.933v-133.86c39.809-12.503 71.237-43.931 83.74-83.74h261.86c21.205 0 38.4-17.193 38.4-38.4 0-21.205-17.195-38.4-38.4-38.4h-261.86c-16.311-51.934-64.826-89.6-122.14-89.6s-105.83 37.666-122.14 89.6h-261.86c-21.208 0-38.4 17.195-38.4 38.4 0 21.207 17.192 38.4 38.4 38.4h261.86c12.503 39.809 43.931 71.237 83.74 83.74v133.86h-302.933c-47.128 0-85.333 38.205-85.333 85.333v64c0 47.128 38.205 85.333 85.333 85.333zM512 179.2c-28.277 0-51.2-22.923-51.2-51.2 0-28.279 22.923-51.2 51.2-51.2s51.2 22.921 51.2 51.2c0 28.277-22.923 51.2-51.2 51.2zM853.333 541.867h-682.667c-4.713 0-8.533-3.82-8.533-8.533v-64c0-4.713 3.82-8.533 8.533-8.533h682.667c4.71 0 8.533 3.82 8.533 8.533v64c0 4.713-3.823 8.533-8.533 8.533zM853.333 896c47.13 0 85.333-38.205 85.333-85.333v-64c0-47.128-38.204-85.333-85.333-85.333h-682.667c-47.128 0-85.333 38.205-85.333 85.333v64c0 47.128 38.205 85.333 85.333 85.333h682.667zM853.333 819.2h-682.667c-4.713 0-8.533-3.82-8.533-8.533v-64c0-4.713 3.82-8.533 8.533-8.533h682.667c4.71 0 8.533 3.82 8.533 8.533v64c0 4.713-3.823 8.533-8.533 8.533z" />
<glyph unicode="&#xe92c;" glyph-name="excel" d="M120.889 21.333l284.444 426.667-284.444 426.667h213.333l177.777-266.667 177.777 266.667h213.334l-284.445-426.667 284.445-426.667h-213.334l-177.777 266.667-130.133-195.558h94.577l71.112-71.108z" />
<glyph unicode="&#xe92d;" glyph-name="ico-end" d="M42.667 448c0 259.413 209.92 469.333 469.333 469.333s469.333-209.92 469.333-469.333-209.92-469.333-469.333-469.333-469.333 209.92-469.333 469.333zM878.933 448c0 202.24-164.693 366.933-366.933 366.933s-366.933-164.693-366.933-366.933 164.693-366.933 366.933-366.933 366.933 164.693 366.933 366.933zM393.387 243.2c-28.16 0-51.2 23.040-51.2 51.2v307.2c0 28.16 23.040 51.2 51.2 51.2s51.2-23.040 51.2-51.2v-307.2c0-28.16-23.040-51.2-51.2-51.2zM630.613 243.2c-28.16 0-51.2 23.040-51.2 51.2v307.2c0 28.16 23.040 51.2 51.2 51.2s51.2-23.040 51.2-51.2v-307.2c0-28.16-23.040-51.2-51.2-51.2z" />
<glyph unicode="&#xe92e;" glyph-name="plus" d="M512 896c-32.873 0-59.733-26.86-59.733-59.733v-328.533h-328.533c-32.873 0-59.733-26.86-59.733-59.733s26.86-59.733 59.733-59.733h328.533v-328.533c0-32.87 26.86-59.733 59.733-59.733s59.733 26.863 59.733 59.733v328.533h328.533c32.87 0 59.733 26.86 59.733 59.733s-26.863 59.733-59.733 59.733h-328.533v328.533c0 32.873-26.86 59.733-59.733 59.733z" />
<glyph unicode="&#xe92f;" glyph-name="minus" d="M129.221 504.686c-27.267 0-49.371-22.104-49.371-49.371v-14.629c0-27.267 22.105-49.371 49.371-49.371h765.565c27.264 0 49.365 22.105 49.365 49.371v14.629c0 27.267-22.101 49.371-49.365 49.371h-765.565z" />
<glyph unicode="&#xe930;" glyph-name="search" d="M25.6 557.227c0 212.48 171.52 384 384 384s384-171.52 384-384-171.52-384-384-384-384 171.52-384 384zM691.2 557.227c0 155.307-126.293 281.6-281.6 281.6s-281.6-126.293-281.6-281.6c0-155.307 126.293-281.6 281.6-281.6 75.093 0 145.92 29.867 198.827 82.773 53.76 52.907 82.773 123.733 82.773 198.827zM983.893-17.92c-9.363-9.101-22.159-14.713-36.267-14.713s-26.904 5.612-36.279 14.725l-285.855 285.855 72.533 72.533 285.867-285.867c19.627-19.627 19.627-52.053 0-72.533z" />
<glyph unicode="&#xe931;" glyph-name="out-link" d="M170.667 704h512c46.933 0 85.333-38.4 85.333-85.333v-512c0-46.933-38.4-85.333-85.333-85.333h-512c-46.933 0-85.333 38.4-85.333 85.333v512c0 46.933 38.4 85.333 85.333 85.333zM665.6 123.733v477.867h-477.867v-477.867h477.867zM256 823.467c0-28.16 23.040-51.2 51.2-51.2h529.067v-529.067c0-28.16 23.040-51.2 51.2-51.2s51.2 23.040 51.2 51.2v546.133c0 46.933-38.4 85.333-85.333 85.333h-546.133c-28.16 0-51.2-23.040-51.2-51.2z" />
<glyph unicode="&#xe932;" glyph-name="star-line" d="M511.81 928.849c15.072-0.279 30.008-7.972 37.547-23.885l132.267-267.947 296.108-42.667c34.987-5.12 49.493-47.787 23.893-72.533l-214.188-209.067 50.347-295.253c5.12-28.16-17.067-50.347-41.813-50.347-5.973 0-12.8 1.707-19.627 5.12l-264.533 139.093-264.533-139.093c-5.973-3.413-12.8-5.12-19.627-5.12-24.747 0-46.933 23.040-41.813 50.347l50.347 295.253-214.187 209.067c-24.747 24.747-11.093 67.413 23.893 72.533l296.107 42.667 132.267 267.947c7.537 15.913 22.473 23.606 37.547 23.885zM592.877 591.791l-78.507 159.573h-1.707l-102.4-208.213-229.547-33.28 128-124.587 38.4-37.547-9.387-52.907-29.867-175.787 157.867 82.773 47.787 24.747 47.787-24.747 157.867-82.773-29.867 175.787-9.387 52.907 38.4 37.547 128 124.587-229.547 33.28-23.893 48.64z" />
<glyph unicode="&#xe933;" glyph-name="star" d="M512.191 111.35l-264.533-139.093c-31.573-16.213-68.267 10.24-62.293 45.227l50.347 295.253-214.187 209.067c-25.6 24.747-11.093 67.413 23.893 72.533l296.107 42.667 132.267 267.947c15.36 31.573 60.587 31.573 76.8 0l132.267-267.947 296.103-42.667c34.987-5.12 48.64-47.787 23.893-72.533l-214.183-209.067 50.347-295.253c5.973-34.987-30.72-61.44-62.293-45.227l-264.533 139.093z" />
<glyph unicode="&#xe934;" glyph-name="close" d="M139.618 810.041c-19.995-19.995-19.995-52.413 0-72.408l289.633-289.634-289.633-289.633c-19.995-19.995-19.995-52.416 0-72.41l10.343-10.342c19.995-19.994 52.413-19.994 72.408 0l289.634 289.634 289.628-289.626c19.994-19.994 52.415-20.002 72.409 0l10.342 10.342c19.994 19.994 19.994 52.412 0 72.406l-289.628 289.628 289.628 289.628c19.994 19.995 19.994 52.413 0 72.408l-10.342 10.344c-19.994 19.994-52.414 19.994-72.409 0l-289.628-289.628-289.634 289.633c-19.994 19.995-52.413 19.995-72.408 0l-10.343-10.343z" />
<glyph unicode="&#xe935;" glyph-name="check" d="M936.775 638.857c21.274 21.276 18.62 56.888-3.627 79.131l-5.171 5.172-0.299-0.3c-22.272 17.639-54.050 18.354-73.66-1.253l-432.922-432.923-249.453 249.454c-22.285 22.285-58.976 21.439-81.584-1.168s-23.453-59.299-1.168-81.584l268.61-268.61c9.161-9.161 19.882-15.852 31.362-20.101 31.581-12.718 67.692-8.037 91.741 16.012l456.171 456.169z" />
<glyph unicode="&#xe936;" glyph-name="download" d="M878.933 81.067v-102.4h-733.867v102.4zM896-20.48h-17.067v290.133c0 28.16 23.040 51.2 51.2 51.2s51.2-23.040 51.2-51.2v-204.8c0-46.933-38.4-85.333-85.333-85.333zM145.067-20.48h-17.067c-46.933 0-85.333 38.4-85.333 85.333v204.8c0 28.16 23.040 51.2 51.2 51.2s51.2-23.040 51.2-51.2v-290.133zM512 323.413c-29.22 0-52.907 23.687-52.907 52.907v488.107c0 29.22 23.687 52.907 52.907 52.907s52.907-23.687 52.907-52.907v-488.107c0-29.22-23.687-52.907-52.907-52.907zM452.096 260.352l-12.032 12.117 313.771 313.685c9.282 9.211 22.067 14.903 36.181 14.903s26.9-5.692 36.185-14.907l-0.003 0.003c9.211-9.282 14.903-22.067 14.903-36.181s-5.692-26.9-14.907-36.185l-253.437-253.522c-15.469-15.375-36.79-24.879-60.331-24.879s-44.861 9.504-60.335 24.883l0.004-0.004zM198.827 585.387c9.286 9.236 22.088 14.946 36.224 14.946s26.938-5.709 36.226-14.948l313.769-313.683-12.117-12.117c-15.469-15.375-36.79-24.879-60.331-24.879s-44.861 9.504-60.335 24.883l-253.436 253.436c-9.236 9.286-14.946 22.088-14.946 36.224s5.709 26.938 14.948 36.226l-0.002-0.002z" />
<glyph unicode="&#xe937;" glyph-name="upload" d="M878.933 81.067v-102.4h-733.867v102.4zM896-20.48h-17.067v290.133c0 28.16 23.040 51.2 51.2 51.2s51.2-23.040 51.2-51.2v-204.8c0-46.933-38.4-85.333-85.333-85.333zM145.067-20.48h-17.067c-46.933 0-85.333 38.4-85.333 85.333v204.8c0 28.16 23.040 51.2 51.2 51.2s51.2-23.040 51.2-51.2v-290.133zM512 829.44c29.22 0 52.907-23.687 52.907-52.907v-488.107c0-29.22-23.687-52.907-52.907-52.907s-52.907 23.687-52.907 52.907v488.107c0 29.22 23.687 52.907 52.907 52.907zM572.416 892.587l12.032-12.117-313.771-313.771c-9.282-9.211-22.067-14.903-36.181-14.903s-26.9 5.692-36.185 14.907l0.003-0.003c-9.236 9.286-14.946 22.088-14.946 36.224s5.709 26.938 14.948 36.226l253.438 253.438c15.469 15.375 36.79 24.879 60.331 24.879s44.861-9.504 60.335-24.883l-0.004 0.004zM825.515 566.357c-9.282-9.211-22.067-14.903-36.181-14.903s-26.9 5.692-36.185 14.907l-313.768 313.768 12.032 12.032c15.474 15.401 36.812 24.921 60.373 24.921s44.899-9.521 60.377-24.925l253.437-253.437c9.211-9.282 14.903-22.067 14.903-36.181s-5.692-26.9-14.907-36.185l0.003 0.003z" />
<glyph unicode="&#xe938;" glyph-name="ico-management-organization" d="M530.527 949.269l218.453-120.32c12.26-6.752 19.874-19.639 19.874-33.636v-239.787c0-13.996-7.614-26.883-19.874-33.635l-199.431-109.843v-55.349h265.386c35.715 0 63.997-28.286 63.997-64v-94.729h29.867c33.28 0 59.733-26.453 59.733-59.733v-136.538c0-33.28-26.453-59.733-59.733-59.733h-136.53c-33.28 0-59.733 26.453-59.733 59.733v136.538c0 33.28 26.453 59.733 59.733 59.733h29.866v81.929h-252.586v-81.929h29.865c33.28 0 59.733-26.453 59.733-59.733v-136.538c0-33.28-26.453-59.733-59.733-59.733h-136.533c-33.28 0-59.733 26.453-59.733 59.733v136.538c0 33.28 26.453 59.733 59.733 59.733h29.868v81.929h-251.734v-81.929h30.719c33.28 0 59.734-26.453 59.734-59.733v-136.538c0-33.28-26.454-59.733-59.734-59.733h-136.533c-33.28 0-59.733 26.453-59.733 59.733v136.538c0 33.28 26.453 59.733 59.733 59.733h29.014v94.729c0 35.715 28.285 64 64 64h264.534v56.286l-197.728 108.905c-12.259 6.752-19.874 19.639-19.874 33.635v239.787c0 13.996 7.615 26.883 19.874 33.636l218.453 120.32c11.534 6.353 25.518 6.353 37.052 0zM234.667 121.171h-102.4v-102.404h102.4v102.404zM562.347 121.171h-102.4v-102.404h102.4v102.404zM891.732 121.171h-102.397v-102.404h102.397v102.404zM512.001 871.794l-180.053-99.17v-194.408l180.053-99.169 180.053 99.169v194.408l-180.053 99.17zM495.552 815.839c10.243 5.634 22.656 5.634 32.899 0l102.4-56.32c10.907-5.999 17.684-17.46 17.684-29.908v-112.64c0-12.448-6.776-23.91-17.684-29.908l-102.4-56.32c-10.243-5.634-22.656-5.634-32.899 0l-102.4 56.32c-10.907 5.999-17.684 17.46-17.684 29.908v112.64c0 12.448 6.777 23.909 17.684 29.908zM512.001 746.976l-68.267-37.547v-72.276l68.267-37.547 68.267 37.547v72.276l-68.267 37.547z" />
<glyph unicode="&#xe939;" glyph-name="image" d="M440.32 608.427c0-52.784-42.79-95.573-95.573-95.573s-95.573 42.79-95.573 95.573c0 52.784 42.79 95.573 95.573 95.573s95.573-42.79 95.573-95.573zM603.307 472.747c-3.879 4.691-9.7 7.658-16.213 7.658s-12.335-2.967-16.185-7.623l-0.028-0.035-133.12-159.573c-8.533-10.24-23.893-10.24-32.427 0l-43.52 52.053c-3.879 4.691-9.7 7.658-16.213 7.658s-12.335-2.967-16.185-7.623l-0.028-0.035-109.227-130.56c-11.947-13.653-1.707-34.987 16.213-34.987h548.693c17.92 0 28.16 21.333 16.213 34.987l-197.973 238.933v-0.853zM128 917.333h768c46.933 0 85.333-38.4 85.333-85.333v-768c0-46.933-38.4-85.333-85.333-85.333h-768c-46.933 0-85.333 38.4-85.333 85.333v768c0 46.933 38.4 85.333 85.333 85.333zM878.933 81.067v733.867h-733.867v-733.867h733.867z" />
<glyph unicode="&#xe93a;" glyph-name="linux" d="M543.488 915.883c48.64-6.485 96.085-34.645 121.515-92.16 21.845-49.152 23.040-93.611 24.064-127.147l0.171-3.755c1.024-35.584 2.987-53.845 14.592-70.485 21.163-28.843 45.312-62.976 66.56-96.171 20.565-32.427 40.192-66.645 50.347-95.147 12.373-32.597 11.776-66.304 9.131-89.515-0.853-7.509-1.963-14.336-3.072-20.224 7.168-12.117 14.677-30.123 14.677-52.736v-3.072c0.81-0.779 1.703-1.482 2.662-2.092l0.069-0.041c1.963-1.195 4.608-2.56 8.107-3.925 25.783-10.172 43.695-34.869 43.695-63.75 0-0.268-0.002-0.536-0.005-0.803v0.041c-0.512-30.549-20.48-54.357-46.251-68.352l-12.629-6.827c-14.933-8.021-31.829-17.067-48.043-26.624-22.272-13.056-37.803-23.893-44.203-30.72-16.721-17.559-39.368-29.341-64.723-32.129l-0.472-0.042c-4.012-0.532-8.652-0.836-13.362-0.836-16.528 0-32.183 3.738-46.165 10.415l0.647-0.278-1.195 0.597-1.195 0.683c-11.94 7.242-21.934 16.447-29.837 27.274l-0.201 0.288c-19.361 3.371-41.784 5.411-64.643 5.63l-0.21 0.002c-24.277-0.917-47.224-3.425-69.647-7.443l3.002 0.446c-16.788-20.099-41.858-32.794-69.894-32.794-5.242 0-10.38 0.444-15.379 1.296l0.537-0.076c-24.491 3.413-49.92 12.544-70.315 19.968-3.6 1.168-4.476 1.487-5.352 1.808l2.707-0.87c-22.869 8.277-40.448 14.507-55.808 16.555-20.651 2.133-47.36 5.632-68.608 14.507-14.346 5.665-26.273 14.847-35.096 26.508l-0.146 0.202c-7.216 10.1-11.539 22.699-11.539 36.307 0 6.562 1.005 12.89 2.87 18.837l-0.12-0.445c1.621 5.803 3.328 11.264 4.693 15.787l1.28 4.181c1.707 5.461 2.56 8.789 3.072 11.349 0.318 1.202 0.504 2.583 0.512 4.006v0.005c-0.138 1.569-0.471 3.018-0.976 4.382l0.038-0.116c-3.925 12.629-9.557 34.816-1.963 57.173 9.472 27.904 33.536 41.813 58.709 46.421 8.704 1.167 16.59 3.626 23.829 7.197l-0.448-0.2c2.304 1.365 2.56 2.048 2.645 2.219 3.584 7.851 7.765 14.507 12.117 20.053-0.853 16.299 1.963 37.291 14.251 59.136 5.327 11.393 10.912 25.721 15.673 40.42l0.796 2.844 5.376 15.189c8.533 24.32 19.883 55.296 34.475 77.312 11.947 17.92 26.709 37.376 38.4 52.907l0.171 0.171c3.704 4.715 9.839 12.937 15.886 21.229l2.802 4.030c0.427 2.645 1.195 7.68 1.707 15.872 0.768 12.203 0.853 28.501-0.512 47.787v0.256c-0.256 3.755-0.683 8.789-1.28 14.592-1.877 19.968-4.693 50.091-2.901 77.824 2.304 36.267 13.056 84.48 55.893 114.005 34.133 23.893 82.005 37.291 128.512 31.147zM543.829 770.219c-22.357 0-39.083-20.907-39.083-47.36v-0.017c0.043-7.532 1.575-14.712 4.181-20.89 3.925-1.024 7.851-2.645 12.203-4.437l-1.821 0.734c1.956-0.882 3.924-1.743 7.795-3.294-4.181 4.267-4.181 9.813-4.181 15.36 0 13.909 9.728 26.453 20.907 26.453 11.093 0 20.907-11.093 20.907-26.453 0-11.179-5.632-20.821-12.544-25.088 1.365-0.683 3.157-1.365 4.864-2.048l0.459-0.163c1.633-0.656 3.235-1.373 4.405-1.97 12.544 6.997 20.907 23.723 20.907 41.813 0 26.453-18.091 47.36-38.997 47.36zM475.563 717.312c0 25.088-13.995 44.544-30.72 44.544s-30.72-19.456-30.72-44.544c0-20.907 8.448-37.632 20.992-43.179 4.181 2.731 8.363 6.912 12.544 11.093h-1.451c-8.363-1.365-16.725 8.363-19.456 22.272-1.451 13.995 4.181 26.453 12.544 27.904 9.728 1.365 18.091-8.363 20.907-22.272 0.33-1.69 0.519-3.634 0.519-5.621 0-5.079-1.233-9.871-3.415-14.091l0.081 0.171c0.683 0.683 1.707 1.365 2.816 2.133 4.397 3.657 9.474 6.706 14.98 8.911l0.38 0.134v12.544zM628.736 225.28s0 62.72 4.181 80.811c2.731 16.725 32 9.813 32 9.813s12.544 38.997 5.632 91.904c-6.997 51.627-82.261 217.429-90.624 224.427-4.608 4.608-24.747-7.083-46.336-19.627-17.152-9.984-35.243-20.48-47.019-23.637-26.453-6.912-64.085 37.632-64.085 37.632 5.547-18.091-6.997-61.269-25.088-80.811-8.704-10.155-15.872-31.147-23.296-52.907-6.827-20.224-13.995-40.96-22.699-54.357-18.091-26.453-29.269-82.261-15.36-114.347 6.827-15.616 28.331-32.256 48.981-48.299 21.589-16.811 42.24-32.853 44.373-46.421 4.267-26.453-22.187-30.72-22.187-30.72l33.365-38.912s29.269-5.632 89.173 2.731c59.904 9.728 98.987 62.72 98.987 62.72zM561.835 651.691c1.365 6.997-9.728 13.995-20.907 18.176-6.962 2.59-10.765 4.144-14.543 5.748l3.023-1.14c-12.971 5.291-30.379 12.459-38.656 13.483-9.728 1.365-27.904-12.544-34.816-19.541-6.997-5.547-22.357-18.091-22.357-18.091-5.547-8.363 13.995-25.088 25.088-32.085l3.157-1.963c9.131-5.717 14.507-9.131 23.381-9.131 9.216 1.28 38.4 18.859 53.419 27.819l2.304 1.451c4.523 2.731 8.363 4.523 11.435 5.973 6.315 3.072 9.387 4.608 9.387 9.387zM412.757 132.011h-1.365c4.181 18.091-8.363 37.632-22.272 52.992-12.203 13.397-40.448 60.928-52.907 81.92l-4.267 7.253c-9.728 13.909-30.635 38.997-43.179 32-5.12-3.157-8.363-10.325-11.947-18.005-4.352-9.301-8.96-19.2-17.323-23.808-6.485-4.096-17.152-6.485-27.563-8.789-14.251-3.243-27.904-6.229-29.611-13.483-1.28-6.656-0.085-12.629 1.28-19.285 1.451-7.168 2.987-15.104 1.536-25.344-0.939-6.229-3.072-12.629-5.12-18.773-3.84-11.52-7.339-22.187-1.877-28.587 4.608-5.291 24.747-8.533 45.995-11.947 17.92-2.901 36.608-5.888 47.445-10.325l9.728-3.84c26.965-10.752 69.205-27.563 86.357-22.699 0 0 20.907 12.629 25.088 30.72zM823.211 187.051c0.237 0.223 0.459 0.446 0.675 0.675l0.007 0.008-1.365-1.365c0.238 0.223 0.46 0.445 0.675 0.675l0.007 0.008zM789.248 168.021c15.36 7.68 28.672 14.507 33.963 19.029 9.472 10.923-12.117 21.76-25.771 28.587-13.995 8.363-20.907 30.635-20.907 45.995 1.365 15.36-8.363 20.907-8.363 20.907s-6.997-13.995-16.725-23.723c-9.728-9.728-41.813-23.723-64.085-13.909-22.357 9.728-18.176 45.995-18.176 45.995s-8.363 2.731-12.544-1.451c-3.584-2.731-2.56-14.763-1.28-28.331 0.597-7.253 1.28-14.933 1.28-21.845 1.451-18.091-4.181-52.907-11.093-83.627-6.997-30.635 6.912-51.541 22.272-57.088 15.36-4.181 40.448 11.093 59.904 32.085 11.435 12.203 38.656 25.856 61.44 37.376z" />
<glyph unicode="&#xe93b;" glyph-name="more" d="M597.333 448c0-47.128-38.205-85.333-85.333-85.333s-85.333 38.205-85.333 85.333c0 47.128 38.205 85.333 85.333 85.333s85.333-38.205 85.333-85.333zM597.333 145.067c0-47.128-38.205-85.333-85.333-85.333s-85.333 38.205-85.333 85.333c0 47.128 38.205 85.333 85.333 85.333s85.333-38.205 85.333-85.333zM597.333 751.787c0-47.128-38.205-85.333-85.333-85.333s-85.333 38.205-85.333 85.333c0 47.128 38.205 85.333 85.333 85.333s85.333-38.205 85.333-85.333z" />
<glyph unicode="&#xe93c;" glyph-name="hamburger" d="M938.667 704h-853.333c-28.16 0-51.2 23.040-51.2 51.2s23.040 51.2 51.2 51.2h853.333c28.16 0 51.2-23.040 51.2-51.2s-23.040-51.2-51.2-51.2zM938.667 396.8h-853.333c-28.16 0-51.2 23.040-51.2 51.2s23.040 51.2 51.2 51.2h853.333c28.16 0 51.2-23.040 51.2-51.2s-23.040-51.2-51.2-51.2zM936.107 89.6h-850.773c-28.16 0-51.2 23.040-51.2 51.2s23.040 51.2 51.2 51.2h850.773c28.16 0 51.2-23.040 51.2-51.2s-23.040-51.2-51.2-51.2z" />
<glyph unicode="&#xe93d;" glyph-name="setting" d="M334.507 448c0 98.133 79.36 177.493 177.493 177.493s177.493-79.36 177.493-177.493-79.36-177.493-177.493-177.493-177.493 79.36-177.493 177.493zM587.093 448c0 41.813-33.28 75.093-75.093 75.093s-75.093-33.28-75.093-75.093 33.28-75.093 75.093-75.093 75.093 33.28 75.093 75.093zM905.557 482.304c0.853-11.947 1.536-23.040 1.536-34.304l0.853 1.707c0-12.032-0.768-23.296-1.536-35.328l-0.171-2.219 44.373-35.84c19.336-15.77 31.585-39.594 31.585-66.279 0-15.478-4.121-29.993-11.325-42.508l0.22 0.414-70.827-125.44c-20.48-36.693-66.56-52.907-106.667-36.693l-52.907 22.187c-19.627-13.653-40.96-24.747-63.147-34.987l-6.827-56.32c-5.12-42.667-41.813-75.093-84.48-75.093h-145.067c-42.667 0-78.507 31.573-84.48 74.24l-7.68 59.733c-20.48 10.24-40.107 20.48-58.027 34.133l-56.32-23.893c-40.107-17.067-86.187-1.707-107.52 35.84l-71.68 124.587c-20.48 36.693-11.947 82.773 21.333 109.227l50.347 40.107c-0.699 10.283-0.821 11.757-0.943 13.231l0.602-8.964c-0.683 10.155-1.365 19.285-1.365 29.013 0 10.325 0.768 19.968 1.536 30.208l0.171 2.219-50.347 40.107c-19.97 15.651-32.683 39.773-32.683 66.863 0 15.598 4.214 30.211 11.566 42.763l-0.217-0.4 71.68 124.587c21.333 36.693 67.413 52.907 107.52 35.84l56.32-23.893c17.92 13.653 37.547 23.893 58.027 34.133l7.68 60.587c5.973 42.667 41.813 74.24 84.48 74.24h144.213c42.667 0 79.36-32.427 84.48-75.093l6.827-57.173c23.040-10.24 43.52-21.333 63.147-34.987l52.907 22.187c39.253 17.067 85.333 0.853 106.667-36.693l70.827-125.44c21.333-35.84 11.947-81.92-20.48-108.373l-44.373-35.84 0.171-2.389zM804.693 447.061v0.086zM794.453 367.787c6.827 25.344 10.24 51.456 10.24 79.36-0.409 28.060-4.12 55.061-10.759 80.888l0.519-2.381 80.213 64-56.32 100.693-97.28-39.253c-37.547 37.547-84.48 64-137.387 77.653l-13.653 104.96h-116.053l-14.507-107.52c-51.2-12.8-98.133-40.107-133.12-77.653l-100.693 41.813-57.173-100.693 86.187-68.267c-6.502-21.839-10.243-46.933-10.243-72.901 0-0.471 0.001-0.942 0.004-1.412v0.073c0-25.6 4.267-52.053 10.24-75.093l-86.187-68.267 57.173-100.693 100.693 41.813c34.987-38.4 81.92-64 133.12-77.653l14.507-106.667h116.053l13.653 104.107c52.907 13.653 99.84 40.96 137.387 77.653l97.28-39.253 56.32 100.693-80.213 64z" />
<glyph unicode="&#xe93e;" glyph-name="warning" d="M438.649 860.053c32.411 57.173 115.145 57.173 147.556 0l426.464-738.987c32.41-57.173-8.533-128-74.206-128h-852.925c-65.675 0-106.615 70.827-74.204 128l426.463 738.987zM511.394 251.627c-30.72 0-55.467-24.747-55.467-55.467s24.747-55.467 55.467-55.467c30.72 0 55.467 24.747 55.467 55.467s-24.747 55.467-55.467 55.467zM554.063 623.68h-85.333v-315.733h85.333v315.733z" />
<glyph unicode="&#xe93f;" glyph-name="caution" d="M981.333 448c0-259.206-210.127-469.333-469.333-469.333s-469.333 210.127-469.333 469.333c0 259.206 210.127 469.333 469.333 469.333s469.333-210.127 469.333-469.333zM511.998 330.24c-30.72 0-55.467-24.747-55.467-55.467s24.747-55.468 55.467-55.468c30.72 0 55.467 24.747 55.467 55.468s-24.747 55.467-55.467 55.467zM554.667 701.44h-85.333v-315.733h85.333v315.733z" />
<glyph unicode="&#xe940;" glyph-name="credit-card" d="M277.333 407.893h59.733c23.564 0 42.667-19.103 42.667-42.667v-59.733c0-23.564-19.103-42.667-42.667-42.667h-59.733c-23.564 0-42.667 19.103-42.667 42.667v59.733c0 23.564 19.103 42.667 42.667 42.667zM128 808.96h768c46.933 0 85.333-38.4 85.333-85.333v-552.107c0-46.933-38.4-85.333-85.333-85.333h-768c-46.933 0-85.333 38.4-85.333 85.333v552.107c0 46.933 38.4 85.333 85.333 85.333zM878.933 188.587v517.973h-733.867v-517.973h733.867zM65.707 584.533h861.013v-102.4h-861.013z" />
<glyph unicode="&#xe941;" glyph-name="dot" d="M682.667 448c0 93.867-76.8 170.667-170.667 170.667s-170.667-76.8-170.667-170.667 76.8-170.667 170.667-170.667 170.667 76.8 170.667 170.667z" />
</font>
</defs>
</svg>
